×

¿Problemas para descargar con Mozilla, EDGE? Deshabilita la opción "Abrir vinculos en una pestaña nueva" tal como lo muestra ésta imagen.

Project Blue Book (2020) Segunda Temporada AMZN WEB-DL 1080p Latino

937 vistas

Información de Project Blue Book (2020) Segunda Temporada AMZN WEB-DL 1080p Latino

Datos de la película

  • Calidad: WEBDL
  • Audio: Se especifica abajo de la Sinopsis
  • Subtitulos: Español Latino SRT- FORZADOS SRT
  • Resolución: 1920x1080
  • Formato: MKV
  • Codec: H.264
  • Encoder: cinemaniahdd
  • Mediainfo: Clic para Mostrar Datos Ver
  • Project Blue Book T02E01 AMZN WEB-DL 1080p Latino [CNMNHDD].mkv
    Format                      : Matroska
    Format version              : Version 4
    File size                   : 2.57 GiB
    Duration                    : 45 min 32 s
    Overall bit rate            : 8 069 kb/s
    Movie name                  : Proyecto Libro Azul T02E01 - CinemaniaHDD.Net
    Encoded date                : UTC 2020-05-03 22:36:46
    Writing application         : mkvmerge v42.0.0 ('Overtime') 64-bit
    Writing library             : libebml v1.3.10 + libmatroska v1.5.2

    Video
    ID                          : 1
    Format                      : AVC
    Format/Info                 : Advanced Video Codec
    Format profile              : High@L4
    Format settings             : CABAC / 4 Ref Frames
    Format settings, CABAC      : Yes
    Format settings, Reference  : 4 frames
    Codec ID                    : V_MPEG4/ISO/AVC
    Duration                    : 45 min 32 s
    Bit rate mode               : Constant
    Bit rate                    : 7 587 kb/s
    Nominal bit rate            : 10 000 kb/s
    Width                       : 1 920 pixels
    Height                      : 1 040 pixels
    Display aspect ratio        : 1.85:1
    Frame rate mode             : Constant
    Frame rate                  : 23.976 (24000/1001) FPS
    Color space                 : YUV
    Chroma subsampling          : 4:2:0
    Bit depth                   : 8 bits
    Scan type                   : Progressive
    Bits/(Pixel*Frame)          : 0.158
    Stream size                 : 2.41 GiB (94%)
    Title                       : CinemaniaHDD
    Default                     : Yes
    Forced                      : No
    Color range                 : Limited
    Color primaries             : BT.709
    Transfer characteristics    : BT.709
    Matrix coefficients         : BT.709

    Audio #1
    ID                          : 2
    Format                      : AC-3
    Format/Info                 : Audio Coding 3
    Commercial name             : Dolby Digital
    Codec ID                    : A_AC3
    Duration                    : 45 min 32 s
    Bit rate mode               : Constant
    Bit rate                    : 256 kb/s
    Channel(s)                  : 2 channels
    Channel layout              : L R
    Sampling rate               : 48.0 kHz
    Frame rate                  : 31.250 FPS (1536 SPF)
    Compression mode            : Lossy
    Stream size                 : 83.4 MiB (3%)
    Title                       : Español latino [CinemaniaHDD]
    Language                    : Spanish
    Service kind                : Complete Main
    Default                     : Yes
    Forced                      : No

    Audio #2
    ID                          : 3
    Format                      : E-AC-3
    Format/Info                 : Enhanced AC-3
    Commercial name             : Dolby Digital Plus
    Codec ID                    : A_EAC3
    Duration                    : 45 min 32 s
    Bit rate mode               : Constant
    Bit rate                    : 224 kb/s
    Channel(s)                  : 2 channels
    Channel layout              : L R
    Sampling rate               : 48.0 kHz
    Frame rate                  : 31.250 FPS (1536 SPF)
    Compression mode            : Lossy
    Stream size                 : 73.0 MiB (3%)
    Title                       : Inglés [CinemaniaHDD]
    Language                    : English
    Service kind                : Complete Main
    Default                     : No
    Forced                      : No

    Text #1
    ID                          : 4
    Format                      : UTF-8
    Codec ID                    : S_TEXT/UTF8
    Codec ID/Info               : UTF-8 Plain Text
    Duration                    : 2 s 981 ms
    Bit rate                    : 152 b/s
    Count of elements           : 1
    Stream size                 : 57.0 Bytes (0%)
    Title                       : Forzados [CinemaniaHDD]
    Language                    : Spanish
    Default                     : Yes
    Forced                      : Yes

    Text #2
    ID                          : 5
    Format                      : UTF-8
    Codec ID                    : S_TEXT/UTF8
    Codec ID/Info               : UTF-8 Plain Text
    Duration                    : 44 min 51 s
    Bit rate                    : 90 b/s
    Count of elements           : 876
    Stream size                 : 29.7 KiB (0%)
    Title                       : Español latino [CinemaniaHDD]
    Language                    : Spanish
    Default                     : No
    Forced                      : No

    Text #3
    ID                          : 6
    Format                      : UTF-8
    Codec ID                    : S_TEXT/UTF8
    Codec ID/Info               : UTF-8 Plain Text
    Duration                    : 44 min 52 s
    Bit rate                    : 90 b/s
    Count of elements           : 1091
    Stream size                 : 29.7 KiB (0%)
    Title                       : Inglés [CinemaniaHDD]
    Language                    : English
    Default                     : No
    Forced                      : No

     

  • Peso: 2.57 GiB Aprox ---- 21.2 GiB in 10 Chapters.

Sinopsis

Inspirada en un proyecto real y secreto de la fuerza aérea estadounidense para investigar OVNIs, PROYECTO LIBRO AZUL, tiene como protagonista al actor Aidan Gillen (Game of Thrones, The Wire) un brillante astrofísico, que es reclutado para un programa secreto junto al Capitán Michael Quinn, interpretado por Michael Malarkey ( The Vampire Diaries). En la búsqueda del Dr. Hynek para descubrir la verdad detrás de una serie de avistamientos misteriosos, poco a poco se dará cuenta de que se encuentra en el centro de un extenso y peligroso encubrimiento, uno que lo pondrá a él y a los más cercanos bajo riesgo.

Español Latino AC3 2.0 WEB-DL – Ingles E-AC3 2.0 WEB-DL

Ficha técnica

Video trailer de la película

Enlaces de descarga

Rip de Bluray

Descargar Project Blue Book (2020) Segunda Temporada AMZN WEB-DL 1080p Latino




Aportes de DPeliculasHDmega la pass es:dpeliculashdmega.org Aportes de CinemaniaHD la pass es:cinemaniahdd.com
Guardado en : Misterio , Sci-Fi & Fantasy , Series

Películas relacionadas

descargar Project Blue Book (2020) Segunda Temporada AMZN WEB-DL 1080p Latino WEBDL 1080p gratis, Project Blue Book (2020) Segunda Temporada AMZN WEB-DL 1080p Latino WEBDL mega 1 link, Project Blue Book (2020) Segunda Temporada AMZN WEB-DL 1080p Latino WEBDL serie completa, descargar Project Blue Book (2020) Segunda Temporada AMZN WEB-DL 1080p Latino WEBDL gratis en mega.

Project Blue Book (2020) Segunda Temporada AMZN WEB-DL 1080p Latino pelicula full hd, Project Blue Book (2020) Segunda Temporada AMZN WEB-DL 1080p Latino mega latino, Project Blue Book (2020) Segunda Temporada AMZN WEB-DL 1080p Latino 4k latino, Project Blue Book (2020) Segunda Temporada AMZN WEB-DL 1080p Latino pelicula completa, Project Blue Book (2020) Segunda Temporada AMZN WEB-DL 1080p Latino descargar gratis, descargar Project Blue Book (2020) Segunda Temporada AMZN WEB-DL 1080p Latino pelicula latino, Project Blue Book (2020) Segunda Temporada AMZN WEB-DL 1080p Latino 1 link mega, Project Blue Book (2020) Segunda Temporada AMZN WEB-DL 1080p Latino 1 link google drive, Project Blue Book (2020) Segunda Temporada AMZN WEB-DL 1080p Latino hd 1080p latino.
Comentarios 8
  • RICHARD - 26 julio, 2020

    muchas gracias

  • Eduardo - 06 julio, 2020

    Habra Tercera Temporada? si es asi por favor no olviden compartirla

  • beto - 23 junio, 2020

    muchas gracias por publicar esta excelente serie

  • beto - 22 junio, 2020

    subiran el cap 10??

    • CinemaniaHDD - 22 junio, 2020

      subiendo…

  • heber - 17 mayo, 2020

    Hola seguiras subiendo los 6 capitulos restantes? ya vi toda la primer temporada esta buenisima y ahorita estoy viendo la segunda ya estoy viendo el numero 3, gracias por esta serie este bien interesante.

    • CinemaniaHDD - 18 mayo, 2020

      1 capitulo nuevo semanalmente

  • beto - 03 mayo, 2020

    geniosssssssssssssssssssssss