×

¿Problemas para descargar con Mozilla, EDGE? Deshabilita la opción "Abrir vinculos en una pestaña nueva" tal como lo muestra ésta imagen.

Project Blue Book (2019) Primera Temporada HD 1080p Latino

562 vistas

Información de Project Blue Book (2019) Primera Temporada HD 1080p Latino

Datos de la película

  • Calidad: 1080p
  • Audio: Se especifica abajo de la Sinopsis
  • Subtitulos: Español Latino SRT- FORZADOS SRT
  • Resolución: 1920x1080
  • Formato: MKV
  • Codec: H.264
  • Encoder: cinemaniahdd
  • Mediainfo: Clic para Mostrar Datos Ver
  • Project Blue Book T01E01 1080p Latino.mkv
    Format                      : Matroska
    Format version              : Version 4
    File size                   : 3.36 GiB
    Duration                    : 44 min 16 s
    Overall bit rate            : 10.8 Mb/s
    Movie name                  : Proyecto Libro Azul T01E01 - CinemaniaHDD.Net
    Encoded date                : UTC 2020-05-03 21:13:44
    Writing application         : mkvmerge v42.0.0 ('Overtime') 64-bit
    Writing library             : libebml v1.3.10 + libmatroska v1.5.2

    Video
    ID                          : 1
    Format                      : AVC
    Format/Info                 : Advanced Video Codec
    Format profile              : High@L4.1
    Format settings             : CABAC / 4 Ref Frames
    Format settings, CABAC      : Yes
    Format settings, ReFrames   : 4 frames
    Codec ID                    : V_MPEG4/ISO/AVC
    Duration                    : 44 min 16 s
    Bit rate                    : 10.4 Mb/s
    Width                       : 1 920 pixels
    Height                      : 960 pixels
    Display aspect ratio        : 2.000
    Frame rate mode             : Constant
    Frame rate                  : 23.976 (24000/1001) FPS
    Color space                 : YUV
    Chroma subsampling          : 4:2:0
    Bit depth                   : 8 bits
    Scan type                   : Progressive
    Bits/(Pixel*Frame)          : 0.235
    Stream size                 : 3.22 GiB (96%)
    Title                       : CinemaniaHDD
    Writing library             : x264 core 157 r2970 5493be8
    Encoding settings           : cabac=1 / ref=4 / deblock=1:0:0 / analyse=0x3:0x133 / me=umh / subme=7 / psy=1 / psy_rd=1.00:0.00 / mixed_ref=1 / me_range=16 / chroma_me=1 / trellis=1 / 8x8dct=1 / cqm=0 / deadzone=21,11 / fast_pskip=0 / chroma_qp_offset=-2 / threads=30 / lookahead_threads=5 / sliced_threads=0 / nr=0 / decimate=1 / interlaced=0 / bluray_compat=0 / constrained_intra=0 / bframes=3 / b_pyramid=2 / b_adapt=1 / b_bias=0 / direct=1 / weightb=1 / open_gop=0 / weightp=2 / keyint=250 / keyint_min=23 / scenecut=40 / intra_refresh=0 / rc_lookahead=40 / rc=2pass / mbtree=1 / bitrate=10401 / ratetol=1.0 / qcomp=0.60 / qpmin=0 / qpmax=69 / qpstep=4 / cplxblur=20.0 / qblur=0.5 / ip_ratio=1.40 / aq=1:1.00
    Language                    : English
    Default                     : Yes
    Forced                      : No

    Audio #1
    ID                          : 2
    Format                      : AC-3
    Format/Info                 : Audio Coding 3
    Commercial name             : Dolby Digital
    Codec ID                    : A_AC3
    Duration                    : 44 min 16 s
    Bit rate mode               : Constant
    Bit rate                    : 256 kb/s
    Channel(s)                  : 2 channels
    Channel layout              : L R
    Sampling rate               : 48.0 kHz
    Frame rate                  : 31.250 FPS (1536 SPF)
    Bit depth                   : 16 bits
    Compression mode            : Lossy
    Stream size                 : 81.1 MiB (2%)
    Title                       : Español latino [CinemaniaHDD]
    Language                    : Spanish
    Service kind                : Complete Main
    Default                     : Yes
    Forced                      : No

    Audio #2
    ID                          : 3
    Format                      : AC-3
    Format/Info                 : Audio Coding 3
    Commercial name             : Dolby Digital
    Codec ID                    : A_AC3
    Duration                    : 44 min 16 s
    Bit rate mode               : Constant
    Bit rate                    : 192 kb/s
    Channel(s)                  : 2 channels
    Channel layout              : L R
    Sampling rate               : 48.0 kHz
    Frame rate                  : 31.250 FPS (1536 SPF)
    Bit depth                   : 16 bits
    Compression mode            : Lossy
    Stream size                 : 60.8 MiB (2%)
    Title                       : Inglés [CinemaniaHDD]
    Language                    : English
    Service kind                : Complete Main
    Default                     : No
    Forced                      : No

    Text #1
    ID                          : 4
    Format                      : UTF-8
    Codec ID                    : S_TEXT/UTF8
    Codec ID/Info               : UTF-8 Plain Text
    Duration                    : 40 min 14 s
    Bit rate                    : 1 b/s
    Count of elements           : 7
    Stream size                 : 335 Bytes (0%)
    Title                       : Forzados [CinemaniaHDD]
    Language                    : Spanish
    Default                     : Yes
    Forced                      : Yes

    Text #2
    ID                          : 5
    Format                      : UTF-8
    Codec ID                    : S_TEXT/UTF8
    Codec ID/Info               : UTF-8 Plain Text
    Duration                    : 43 min 39 s
    Bit rate                    : 82 b/s
    Count of elements           : 737
    Stream size                 : 26.5 KiB (0%)
    Title                       : Español latino [CinemaniaHDD]
    Language                    : Spanish
    Default                     : No
    Forced                      : No

    Menu
    00:00:00.000                : en:00:00:00.000
    00:12:41.427                : en:00:12:41.427
    00:23:32.536                : en:00:23:32.536
    00:27:25.686                : en:00:27:25.686
    00:33:50.111                : en:00:33:50.111
    00:38:20.965                : en:00:38:20.965
    00:43:44.539                : en:00:43:44.539

     

  • Peso: 3.36 GiB Aprox ---- 30.3 GiB in 10 Chapters.

Sinopsis

Inspirada en un proyecto real y secreto de la fuerza aérea estadounidense para investigar OVNIs, PROYECTO LIBRO AZUL, tiene como protagonista al actor Aidan Gillen (Game of Thrones, The Wire) un brillante astrofísico, que es reclutado para un programa secreto junto al Capitán Michael Quinn, interpretado por Michael Malarkey ( The Vampire Diaries). En la búsqueda del Dr. Hynek para descubrir la verdad detrás de una serie de avistamientos misteriosos, poco a poco se dará cuenta de que se encuentra en el centro de un extenso y peligroso encubrimiento, uno que lo pondrá a él y a los más cercanos bajo riesgo.

Español Latino AC3 2.0 WEB-DL – Ingles AC3 2.0 Bluray

Ficha técnica

Video trailer de la película

Enlaces de descarga

Rip de Bluray

Descargar Project Blue Book (2019) Primera Temporada HD 1080p Latino




Aportes de DPeliculasHDmega la pass es:dpeliculashdmega.org Aportes de CinemaniaHD la pass es:cinemaniahdd.com

Películas relacionadas

descargar Project Blue Book (2019) Primera Temporada HD 1080p Latino 1080p 1080p gratis, Project Blue Book (2019) Primera Temporada HD 1080p Latino 1080p mega 1 link, Project Blue Book (2019) Primera Temporada HD 1080p Latino 1080p serie completa, descargar Project Blue Book (2019) Primera Temporada HD 1080p Latino 1080p gratis en mega.

Project Blue Book (2019) Primera Temporada HD 1080p Latino pelicula full hd, Project Blue Book (2019) Primera Temporada HD 1080p Latino mega latino, Project Blue Book (2019) Primera Temporada HD 1080p Latino 4k latino, Project Blue Book (2019) Primera Temporada HD 1080p Latino pelicula completa, Project Blue Book (2019) Primera Temporada HD 1080p Latino descargar gratis, descargar Project Blue Book (2019) Primera Temporada HD 1080p Latino pelicula latino, Project Blue Book (2019) Primera Temporada HD 1080p Latino 1 link mega, Project Blue Book (2019) Primera Temporada HD 1080p Latino 1 link google drive, Project Blue Book (2019) Primera Temporada HD 1080p Latino hd 1080p latino.
Comentarios 2
  • Omar Enrrique - 26 abril, 2021

    Muchas gracias por esta serie.

  • Holy Man - 30 mayo, 2020

    Buen día! No conocía esta serie. Está en Netflix o dónde la dan ? Gracias por compartir!