Profeta Adolescente (2018) REMUX 1080p Latino

9 vistas
1 estrella2 estrellas3 estrellas4 estrellas5 estrellas (1 votos, promedio: 5,00 de 5)
Cargando...

Información de Profeta Adolescente (2018) REMUX 1080p Latino

Datos de la película

  • Calidad: Full 1080p
  • Audio: Se especifica abajo de la Sinopsis
  • Subtitulos: Español Latino SRT- FORZADOS SRT
  • Resolución: 1920x1080p
  • Formato: MKV
  • Codec: H.264
  • Encoder: Melkor
  • Mediainfo: Clic para Mostrar Datos Ver
  • Profeta Adolescente (2018) REMUX 1080p Latino.mkv
    Format                      : Matroska
    Format version              : Version 4
    File size                   : 20.4 GiB
    Duration                    : 1 h 42 min
    Overall bit rate mode       : Variable
    Overall bit rate            : 28.6 Mb/s
    Movie name                  : Anthem Of A Teenage Prophet (2018) CinemaniaHDD.Net
    Encoded date                : UTC 2021-01-14 05:32:11
    Writing application         : mkvmerge v51.0.0 ('I Wish') 64-bit
    Writing library             : libebml v1.4.0 + libmatroska v1.6.2
    Attachments                 : CINEMANIAHD.png

    Video
    ID                          : 1
    Format                      : AVC
    Format/Info                 : Advanced Video Codec
    Format profile              : High@L4.1
    Format settings             : CABAC / 4 Ref Frames
    Format settings, CABAC      : Yes
    Format settings, Reference  : 4 frames
    Format settings, GOP        : M=3, N=24
    Codec ID                    : V_MPEG4/ISO/AVC
    Duration                    : 1 h 42 min
    Bit rate mode               : Variable
    Bit rate                    : 25.0 Mb/s
    Maximum bit rate            : 35.0 Mb/s
    Width                       : 1 920 pixels
    Height                      : 1 080 pixels
    Display aspect ratio        : 16:9
    Frame rate mode             : Constant
    Frame rate                  : 23.976 (24000/1001) FPS
    Standard                    : NTSC
    Color space                 : YUV
    Chroma subsampling          : 4:2:0
    Bit depth                   : 8 bits
    Scan type                   : Progressive
    Bits/(Pixel*Frame)          : 0.502
    Stream size                 : 17.8 GiB (87%)
    Title                       : REMUX HD1080p [CinemaniaHDD]
    Language                    : English
    Default                     : Yes
    Forced                      : No
    Color range                 : Limited
    Color primaries             : BT.709
    Transfer characteristics    : BT.709
    Matrix coefficients         : BT.709

    Audio #1
    ID                          : 2
    Format                      : AC-3
    Format/Info                 : Audio Coding 3
    Commercial name             : Dolby Digital
    Codec ID                    : A_AC3
    Duration                    : 1 h 42 min
    Bit rate mode               : Constant
    Bit rate                    : 256 kb/s
    Channel(s)                  : 2 channels
    Channel layout              : L R
    Sampling rate               : 48.0 kHz
    Frame rate                  : 31.250 FPS (1536 SPF)
    Compression mode            : Lossy
    Stream size                 : 187 MiB (1%)
    Title                       : Español Latino [CinemaniaHDD]
    Language                    : Spanish
    Service kind                : Complete Main
    Default                     : Yes
    Forced                      : No

    Audio #2
    ID                          : 3
    Format                      : DTS XLL
    Format/Info                 : Digital Theater Systems
    Commercial name             : DTS-HD Master Audio
    Codec ID                    : A_DTS
    Duration                    : 1 h 42 min
    Bit rate mode               : Variable
    Bit rate                    : 3 338 kb/s
    Channel(s)                  : 6 channels
    Channel layout              : C L R Ls Rs LFE
    Sampling rate               : 48.0 kHz
    Frame rate                  : 93.750 FPS (512 SPF)
    Bit depth                   : 24 bits
    Compression mode            : Lossless
    Stream size                 : 2.38 GiB (12%)
    Title                       : Ingles [CinemaniaHDD]
    Language                    : English
    Default                     : No
    Forced                      : No

    Text #1
    ID                          : 4
    Format                      : UTF-8
    Codec ID                    : S_TEXT/UTF8
    Codec ID/Info               : UTF-8 Plain Text
    Duration                    : 1 h 2 min
    Bit rate                    : 0 b/s
    Count of elements           : 7
    Stream size                 : 120 Bytes (0%)
    Title                       : Forzados-SRT [CinemaniaHDD]
    Language                    : Spanish
    Default                     : Yes
    Forced                      : No

    Text #2
    ID                          : 5
    Format                      : UTF-8
    Codec ID                    : S_TEXT/UTF8
    Codec ID/Info               : UTF-8 Plain Text
    Duration                    : 1 h 37 min
    Bit rate                    : 39 b/s
    Count of elements           : 1105
    Stream size                 : 28.4 KiB (0%)
    Title                       : Español-SRT [CinemaniaHDD]
    Language                    : Spanish
    Default                     : No
    Forced                      : No

    Text #3
    ID                          : 6
    Format                      : UTF-8
    Codec ID                    : S_TEXT/UTF8
    Codec ID/Info               : UTF-8 Plain Text
    Duration                    : 1 h 37 min
    Bit rate                    : 41 b/s
    Count of elements           : 1315
    Stream size                 : 29.4 KiB (0%)
    Title                       : Ingles-SRT [CinemaniaHDD]
    Language                    : English
    Default                     : No
    Forced                      : No

    Menu
    00:00:00.000                : :Chapter 01
    00:13:06.703                : :Chapter 02
    00:22:31.809                : :Chapter 03
    00:31:47.739                : :Chapter 04
    00:42:25.460                : :Chapter 05
    00:52:56.090                : :Chapter 06
    01:03:21.840                : :Chapter 07
    01:10:38.443                : :Chapter 08
    01:16:10.608                : :Chapter 09
    01:25:38.508                : :Chapter 10
    01:32:43.391                : :Chapter 11
    01:37:47.236                : :Chapter 12

  • Peso: 20.4 GiB

Sinopsis

Descargar Profeta Adolescente (2018) REMUX 1080p Latino. Luke es un adolescente que predice la muerte de su mejor amigo Stan. Cuando la premonición se cumple, Luke tendrá que lidiar con el apodo de «El profeta de la muerte» y con el rechazo del pueblo. Además, se enamora de Faith, la que fue novia de Stan, y sigue teniendo premoniciones.

Español Latino AC3 2.0 WebDL – Ingles DTS-HD 5.1 Bluray

Ficha técnica

  • Titulo original: Anthem of a Teenage Prophet
  • Fecha de lanzamiento: 11-01-2019 (Canada)
  • Director: Robin Hays
  • Género: Drama, Remux
  • Puntuación: 5.0 1 votos
  • Duración:
    1h 39m

Video trailer de la película

Enlaces de descarga

Rip de Bluray

Descargar Profeta Adolescente (2018) REMUX 1080p Latino




Aportes de DPeliculasHDmega la pass es:dpeliculashdmega.org Aportes de CinemaniaHD la pass es:cinemaniahdd.com
Guardado en : Drama , Remux

Películas relacionadas

  • Come Play (2020) REMUX 1080p Latino

    Come Play (2020) REMUX 1080p Latino

    2020
    Come Play (2020) REMUX 1080p Latino

    0.0 1h 36m 2020

    Descargar Come Play (2020) REMUX 1080p Latino. Un niño problemático y su familia se convierten en el...

    Director: Jacob Chase

    Género: Terror

    Actores: Winslow Fegley

  • Agentes Vanguard (2020) REMUX 1080p Latino

    Agentes Vanguard (2020) REMUX 1080p Latino

    2020
    Agentes Vanguard (2020) REMUX 1080p Latino

    5.0 1h 47m 2020

    Descargar Agentes Vanguard (2020) REMUX 1080p Latino. La compañía de seguridad encubierta Vanguard...

    Director: Stanley Tong

    Género: Acción

    Actores: Zhu Zhengting

  • Beforeigners (2020) Temporada 1 HBOGO WEB-DL 1080p

    Beforeigners (2020) Temporada 1 HBOGO WEB-DL 1080p

    2019
    Beforeigners (2020) Temporada 1 HBOGO WEB-DL 1080p

    5.0 0h 50m 2019

    Gente de la Edad de Piedra, la Era Vikinga y finales del siglo XIX comienzan a aparecer inexplicablemente...

    Director: Eilif Skodvin

    Género: Drama

    Actores: Stig R. Amdam

  • Escuela de Miedo (2020) REMUX 1080p Latino

    Escuela de Miedo (2020) REMUX 1080p Latino

    2020
    Escuela de Miedo (2020) REMUX 1080p Latino

    0.0 1h 20m 2020

    Descargar Escuela de Miedo (2020) REMUX 1080p Latino. Un inteligente estudiante de secundaria de 15 años...

    Director: Leopoldo Aguilar

    Género: Animación

    Actores: Ruby Rose

Comentarios 0