×

¿Problemas para descargar con Mozilla, EDGE? Deshabilita la opción "Abrir vinculos en una pestaña nueva" tal como lo muestra ésta imagen.

Profesión peligro (2024) WEB-DL 4K UHD HDR Latino

83 vistas

Información de Profesión peligro (2024) WEB-DL 4K UHD HDR Latino

Datos de la película

  • Calidad: WEBDL
  • Audio: Español Latino AC3 5.1 WEB-DL - Ingles AC3 5.1 WEB-DL
  • Subtitulos: Español Latino SRT- FORZADOS SRT
  • Resolución: 3836x1600p
  • Formato: MKV
  • Codec: HEVC
  • Encoder: Melkor
  • Mediainfo: Clic para Mostrar Datos Ver
  • The Fall Guy (2024) WEB UHD HDR Latino.mkv
    Format                      : Matroska
    Format version              : Version 4
    File size                   : 22.7 GiB
    Duration                    : 2 h 6 min
    Overall bit rate            : 25.7 Mb/s
    Movie name                  : The Fall Guy (2024) CinemaniaHDD.Net
    Encoded date                : UTC 2024-05-21 07:23:57
    Writing application         : mkvmerge v56.1.0 ('My Friend') 64-bit
    Writing library             : libebml v1.4.2 + libmatroska v1.6.4
    Attachments                 : CINEMANIAHD.png
    Site                        : CinemaniaHDD.Net
    Uploader                    : Melkor

    Video
    ID                          : 1
    Format                      : HEVC
    Format/Info                 : High Efficiency Video Coding
    Format profile              : Main 10@L5@High
    HDR format                  : SMPTE ST 2094 App 4, Version 1, HDR10+ Profile B compatible
    Codec ID                    : V_MPEGH/ISO/HEVC
    Duration                    : 2 h 6 min
    Bit rate                    : 24.5 Mb/s
    Width                       : 3 836 pixels
    Height                      : 1 600 pixels
    Display aspect ratio        : 2.40:1
    Original display aspect rat : 2.40:1
    Frame rate mode             : Constant
    Frame rate                  : 23.976 (24000/1001) FPS
    Color space                 : YUV
    Chroma subsampling          : 4:2:0 (Type 2)
    Bit depth                   : 10 bits
    Bits/(Pixel*Frame)          : 0.167
    Stream size                 : 21.6 GiB (95%)
    Title                       : Web 2160p HDR [CinemaniaHDD]
    Language                    : English
    Default                     : Yes
    Forced                      : No
    Color range                 : Limited
    Color primaries             : BT.2020
    Transfer characteristics    : PQ
    Matrix coefficients         : BT.2020 non-constant
    Mastering display color pri : Display P3
    Mastering display luminance : min: 0.0050 cd/m2, max: 4000 cd/m2
    Maximum Content Light Level : 1053 cd/m2
    Maximum Frame-Average Light : 473 cd/m2

    Audio #1
    ID                          : 2
    Format                      : AC-3
    Format/Info                 : Audio Coding 3
    Commercial name             : Dolby Digital
    Codec ID                    : A_AC3
    Duration                    : 2 h 6 min
    Bit rate mode               : Constant
    Bit rate                    : 384 kb/s
    Channel(s)                  : 6 channels
    Channel layout              : L R C LFE Ls Rs
    Sampling rate               : 48.0 kHz
    Frame rate                  : 31.250 FPS (1536 SPF)
    Compression mode            : Lossy
    Stream size                 : 347 MiB (1%)
    Title                       : Español Latino [CinemaniaHDD]
    Language                    : Spanish
    Service kind                : Complete Main
    Default                     : Yes
    Forced                      : Yes

    Audio #2
    ID                          : 3
    Format                      : E-AC-3 JOC
    Format/Info                 : Enhanced AC-3 with Joint Object Coding
    Commercial name             : Dolby Digital Plus with Dolby Atmos
    Codec ID                    : A_EAC3
    Duration                    : 2 h 6 min
    Bit rate mode               : Constant
    Bit rate                    : 768 kb/s
    Channel(s)                  : 6 channels
    Channel layout              : L R C LFE Ls Rs
    Sampling rate               : 48.0 kHz
    Frame rate                  : 31.250 FPS (1536 SPF)
    Compression mode            : Lossy
    Stream size                 : 694 MiB (3%)
    Title                       : Ingles [CinemaniaHDD]
    Language                    : English
    Service kind                : Complete Main
    Default                     : No
    Forced                      : No
    Complexity index            : 16
    Number of dynamic objects   : 15
    Bed channel count           : 1 channel
    Bed channel configuration   : LFE

    Text #1
    ID                          : 4
    Format                      : UTF-8
    Codec ID                    : S_TEXT/UTF8
    Codec ID/Info               : UTF-8 Plain Text
    Duration                    : 2 h 3 min
    Bit rate                    : 1 b/s
    Count of elements           : 37
    Stream size                 : 1 009 Bytes (0%)
    Title                       : Forzados-SRT [CinemaniaHDD]
    Language                    : Spanish
    Default                     : Yes
    Forced                      : Yes

    Text #2
    ID                          : 5
    Format                      : UTF-8
    Codec ID                    : S_TEXT/UTF8
    Codec ID/Info               : UTF-8 Plain Text
    Duration                    : 2 h 6 min
    Bit rate                    : 76 b/s
    Count of elements           : 2088
    Stream size                 : 70.5 KiB (0%)
    Title                       : Español-SRT [CinemaniaHDD]
    Language                    : Spanish
    Default                     : No
    Forced                      : No

    Text #3
    ID                          : 6
    Format                      : UTF-8
    Codec ID                    : S_TEXT/UTF8
    Codec ID/Info               : UTF-8 Plain Text
    Duration                    : 2 h 6 min
    Bit rate                    : 103 b/s
    Count of elements           : 2950
    Stream size                 : 95.7 KiB (0%)
    Title                       : Ingles-SRT [CinemaniaHDD]
    Language                    : English
    Default                     : No
    Forced                      : No

  • Peso: 22.7 GiB

Sinopsis

Descargar Profesión peligro (2024) WEB-DL 4K UHD HDR Latino. Es un doble de acción, y al igual que todos en la comunidad de especialistas, sale volando, le disparan, se estrella, se tira desde ventanas y cae desde las alturas más extremas, todo para nuestro entretenimiento. Y ahora, tras un accidente que casi acaba con su carrera, este héroe de clase trabajadora debe seguir la pista de una estrella de cine desaparecida, resolver una conspiración y tratar de recuperar el amor de su vida mientras sigue haciendo su trabajo. ¿Qué podría salir bien?

Ficha técnica

Video trailer de la película

Enlaces de descarga

Rip de Bluray

Descargar Profesión peligro (2024) WEB-DL 4K UHD HDR Latino




Aportes de DPeliculasHDmega la pass es:dpeliculashdmega.org Aportes de CinemaniaHD la pass es:cinemaniahdd.com Aportes recientes:cinemaniahdd.net
Guardado en : 4K HDR , 4K UHD , Acción , Comedia

Películas relacionadas

descargar Profesión peligro (2024) WEB-DL 4K UHD HDR Latino WEBDL 1080p gratis, Profesión peligro (2024) WEB-DL 4K UHD HDR Latino WEBDL mega 1 link, Profesión peligro (2024) WEB-DL 4K UHD HDR Latino WEBDL pelicula completa, descargar Profesión peligro (2024) WEB-DL 4K UHD HDR Latino WEBDL gratis en mega.

Profesión peligro (2024) WEB-DL 4K UHD HDR Latino pelicula full hd, Profesión peligro (2024) WEB-DL 4K UHD HDR Latino mega latino, Profesión peligro (2024) WEB-DL 4K UHD HDR Latino 4k latino, Profesión peligro (2024) WEB-DL 4K UHD HDR Latino pelicula completa, Profesión peligro (2024) WEB-DL 4K UHD HDR Latino descargar gratis, descargar Profesión peligro (2024) WEB-DL 4K UHD HDR Latino pelicula latino, Profesión peligro (2024) WEB-DL 4K UHD HDR Latino 1 link mega, Profesión peligro (2024) WEB-DL 4K UHD HDR Latino 1 link google drive, Profesión peligro (2024) WEB-DL 4K UHD HDR Latino hd 1080p latino.
Comentarios 0