×

¿Problemas para descargar con Mozilla, EDGE? Deshabilita la opción "Abrir vinculos en una pestaña nueva" tal como lo muestra ésta imagen.

Profesión peligro (2024) AMZN WEB-DL 1080p Latino

76 vistas

Información de Profesión peligro (2024) AMZN WEB-DL 1080p Latino

Datos de la película

  • Calidad: WEBDL
  • Audio: Español Latino AC3 5.1 WEB-DL - Ingles AC3 5.1 WEB-DL
  • Subtitulos: Español Latino SRT- FORZADOS SRT
  • Resolución: 1920x800p
  • Formato: MKV
  • Codec: H.264
  • Encoder: Melkor
  • Mediainfo: Clic para Mostrar Datos Ver
  • The Fall Guy (2024) AMZN WEB 1080p Latino.mkv
    Format                      : Matroska
    Format version              : Version 4
    File size                   : 8.74 GiB
    Duration                    : 2 h 7 min
    Overall bit rate            : 9 847 kb/s
    Movie name                  : The Fall Guy (2024) CinemaniaHDD.Net
    Encoded date                : UTC 2024-05-21 05:41:19
    Writing application         : mkvmerge v56.1.0 ('My Friend') 64-bit
    Writing library             : libebml v1.4.2 + libmatroska v1.6.4
    Attachments                 : CINEMANIAHD.png
    Site                        : CinemaniaHDD.Net
    Uploader                    : Melkor

    Video
    ID                          : 1
    Format                      : AVC
    Format/Info                 : Advanced Video Codec
    Format profile              : High@L4
    Format settings             : CABAC / 4 Ref Frames
    Format settings, CABAC      : Yes
    Format settings, Reference  : 4 frames
    Codec ID                    : V_MPEG4/ISO/AVC
    Duration                    : 2 h 7 min
    Bit rate mode               : Constant
    Bit rate                    : 8 698 kb/s
    Nominal bit rate            : 10 000 kb/s
    Width                       : 1 920 pixels
    Height                      : 800 pixels
    Display aspect ratio        : 2.40:1
    Frame rate mode             : Constant
    Frame rate                  : 23.976 (24000/1001) FPS
    Color space                 : YUV
    Chroma subsampling          : 4:2:0
    Bit depth                   : 8 bits
    Scan type                   : Progressive
    Bits/(Pixel*Frame)          : 0.236
    Stream size                 : 7.72 GiB (88%)
    Title                       : Web HD1080p [CinemaniaHDD]
    Language                    : English
    Default                     : Yes
    Forced                      : Yes
    Color range                 : Limited
    Color primaries             : BT.709
    Transfer characteristics    : BT.709
    Matrix coefficients         : BT.709

    Audio #1
    ID                          : 2
    Format                      : AC-3
    Format/Info                 : Audio Coding 3
    Commercial name             : Dolby Digital
    Codec ID                    : A_AC3
    Duration                    : 2 h 6 min
    Bit rate mode               : Constant
    Bit rate                    : 384 kb/s
    Channel(s)                  : 6 channels
    Channel layout              : L R C LFE Ls Rs
    Sampling rate               : 48.0 kHz
    Frame rate                  : 31.250 FPS (1536 SPF)
    Compression mode            : Lossy
    Delay relative to video     : 28 ms
    Stream size                 : 347 MiB (4%)
    Title                       : Español Latino [CinemaniaHDD]
    Language                    : Spanish
    Service kind                : Complete Main
    Default                     : Yes
    Forced                      : Yes

    Audio #2
    ID                          : 3
    Format                      : E-AC-3 JOC
    Format/Info                 : Enhanced AC-3 with Joint Object Coding
    Commercial name             : Dolby Digital Plus with Dolby Atmos
    Codec ID                    : A_EAC3
    Duration                    : 2 h 6 min
    Bit rate mode               : Constant
    Bit rate                    : 768 kb/s
    Channel(s)                  : 6 channels
    Channel layout              : L R C LFE Ls Rs
    Sampling rate               : 48.0 kHz
    Frame rate                  : 31.250 FPS (1536 SPF)
    Compression mode            : Lossy
    Delay relative to video     : 13 ms
    Stream size                 : 694 MiB (8%)
    Title                       : Ingles [CinemaniaHDD]
    Language                    : English
    Service kind                : Complete Main
    Default                     : No
    Forced                      : No
    Complexity index            : 16
    Number of dynamic objects   : 15
    Bed channel count           : 1 channel
    Bed channel configuration   : LFE

    Text #1
    ID                          : 4
    Format                      : UTF-8
    Codec ID                    : S_TEXT/UTF8
    Codec ID/Info               : UTF-8 Plain Text
    Duration                    : 2 h 3 min
    Bit rate                    : 1 b/s
    Count of elements           : 37
    Stream size                 : 1 009 Bytes (0%)
    Title                       : Forzados-SRT [CinemaniaHDD]
    Language                    : Spanish
    Default                     : Yes
    Forced                      : Yes

    Text #2
    ID                          : 5
    Format                      : UTF-8
    Codec ID                    : S_TEXT/UTF8
    Codec ID/Info               : UTF-8 Plain Text
    Duration                    : 2 h 6 min
    Bit rate                    : 78 b/s
    Count of elements           : 2086
    Stream size                 : 72.8 KiB (0%)
    Title                       : Español-SRT [CinemaniaHDD]
    Language                    : Spanish
    Default                     : No
    Forced                      : No

    Text #3
    ID                          : 6
    Format                      : UTF-8
    Codec ID                    : S_TEXT/UTF8
    Codec ID/Info               : UTF-8 Plain Text
    Duration                    : 2 h 6 min
    Bit rate                    : 92 b/s
    Count of elements           : 2648
    Stream size                 : 85.6 KiB (0%)
    Title                       : Ingles-SRT [CinemaniaHDD]
    Language                    : English
    Default                     : No
    Forced                      : No

    Menu
    00:00:00.000                : Chapter 01
    00:05:53.687                : Chapter 02
    00:11:19.804                : Chapter 03
    00:16:34.160                : Chapter 04
    00:21:20.321                : Chapter 05
    00:27:00.120                : Chapter 06
    00:35:48.398                : Chapter 07
    00:40:11.161                : Chapter 08
    00:44:50.607                : Chapter 09
    00:54:12.293                : Chapter 10
    00:59:57.931                : Chapter 11
    01:06:10.804                : Chapter 12
    01:12:10.622                : Chapter 13
    01:18:48.937                : Chapter 14
    01:27:36.131                : Chapter 15
    01:32:47.317                : Chapter 16
    01:40:14.639                : Chapter 17
    01:45:10.852                : Chapter 18
    01:50:55.655                : Chapter 19
    01:59:36.760                : Chapter 20

  • Peso: 8.74 GiB

Sinopsis

Descargar Profesión peligro (2024) AMZN WEB-DL 1080p Latino. Es un doble de acción, y al igual que todos en la comunidad de especialistas, sale volando, le disparan, se estrella, se tira desde ventanas y cae desde las alturas más extremas, todo para nuestro entretenimiento. Y ahora, tras un accidente que casi acaba con su carrera, este héroe de clase trabajadora debe seguir la pista de una estrella de cine desaparecida, resolver una conspiración y tratar de recuperar el amor de su vida mientras sigue haciendo su trabajo. ¿Qué podría salir bien?

Ficha técnica

Video trailer de la película

Enlaces de descarga

Rip de Bluray

Descargar Profesión peligro (2024) AMZN WEB-DL 1080p Latino




Aportes de DPeliculasHDmega la pass es:dpeliculashdmega.org Aportes de CinemaniaHD la pass es:cinemaniahdd.com Aportes recientes:cinemaniahdd.net
Guardado en : Acción , Comedia

Películas relacionadas

descargar Profesión peligro (2024) AMZN WEB-DL 1080p Latino WEBDL 1080p gratis, Profesión peligro (2024) AMZN WEB-DL 1080p Latino WEBDL mega 1 link, Profesión peligro (2024) AMZN WEB-DL 1080p Latino WEBDL pelicula completa, descargar Profesión peligro (2024) AMZN WEB-DL 1080p Latino WEBDL gratis en mega.

Profesión peligro (2024) AMZN WEB-DL 1080p Latino pelicula full hd, Profesión peligro (2024) AMZN WEB-DL 1080p Latino mega latino, Profesión peligro (2024) AMZN WEB-DL 1080p Latino 4k latino, Profesión peligro (2024) AMZN WEB-DL 1080p Latino pelicula completa, Profesión peligro (2024) AMZN WEB-DL 1080p Latino descargar gratis, descargar Profesión peligro (2024) AMZN WEB-DL 1080p Latino pelicula latino, Profesión peligro (2024) AMZN WEB-DL 1080p Latino 1 link mega, Profesión peligro (2024) AMZN WEB-DL 1080p Latino 1 link google drive, Profesión peligro (2024) AMZN WEB-DL 1080p Latino hd 1080p latino.
Comentarios 0