×

¿Problemas para descargar con Mozilla, EDGE? Deshabilita la opción "Abrir vinculos en una pestaña nueva" tal como lo muestra ésta imagen.

Problem Child (1990) REMUX 1080p Latino – CMHDD

140 vistas

Información de Problem Child (1990) REMUX 1080p Latino – CMHDD

Datos de la película

  • Calidad: Full 1080p
  • Audio: Se especifica abajo de la Sinopsis
  • Subtitulos: Español Latino SRT
  • Resolución: 1920x1080p
  • Formato: MKV
  • Codec: H.264
  • Encoder: Dracarys
  • Mediainfo: Clic para Mostrar Datos Ver
  • Format                      : Matroska
    Format version              : Version 4
    File size                   : 15.2 GiB
    Duration                    : 1 h 20 min
    Overall bit rate mode       : Variable
    Overall bit rate            : 26.9 Mb/s
    Movie name                  : Problem Child (1990) REMUX 1080p Latino - CMHDD
    Encoded date                : UTC 2021-06-20 03:44:41
    Writing application         : mkvmerge v56.1.0 ('My Friend') 64-bit
    Writing library             : libebml v1.4.2 + libmatroska v1.6.4
    Cover                       : Yes
    Attachments                 : cover.jpg

    Video
    ID                          : 1
    Format                      : AVC
    Format/Info                 : Advanced Video Codec
    Format profile              : High@L4.1
    Format settings             : CABAC / 4 Ref Frames
    Format settings, CABAC      : Yes
    Format settings, Reference  : 4 frames
    Codec ID                    : V_MPEG4/ISO/AVC
    Duration                    : 1 h 20 min
    Bit rate mode               : Variable
    Bit rate                    : 25.0 Mb/s
    Maximum bit rate            : 36.0 Mb/s
    Width                       : 1 920 pixels
    Height                      : 1 080 pixels
    Display aspect ratio        : 16:9
    Frame rate mode             : Constant
    Frame rate                  : 23.976 (24000/1001) FPS
    Standard                    : NTSC
    Color space                 : YUV
    Chroma subsampling          : 4:2:0
    Bit depth                   : 8 bits
    Scan type                   : Progressive
    Bits/(Pixel*Frame)          : 0.503
    Stream size                 : 14.1 GiB (93%)
    Default                     : Yes
    Forced                      : No
    Color range                 : Limited
    Color primaries             : BT.709
    Transfer characteristics    : BT.709
    Matrix coefficients         : BT.709

    Audio #1
    ID                          : 2
    Format                      : AC-3
    Format/Info                 : Audio Coding 3
    Commercial name             : Dolby Digital
    Codec ID                    : A_AC3
    Duration                    : 1 h 20 min
    Bit rate mode               : Constant
    Bit rate                    : 224 kb/s
    Channel(s)                  : 2 channels
    Channel layout              : L R
    Sampling rate               : 48.0 kHz
    Frame rate                  : 31.250 FPS (1536 SPF)
    Compression mode            : Lossy
    Stream size                 : 129 MiB (1%)
    Language                    : Spanish
    Service kind                : Complete Main
    Default                     : Yes
    Forced                      : No

    Audio #2
    ID                          : 3
    ID in the original source m : 4353 (0x1101)
    Format                      : DTS XLL
    Format/Info                 : Digital Theater Systems
    Commercial name             : DTS-HD Master Audio
    Codec ID                    : A_DTS
    Duration                    : 1 h 20 min
    Bit rate mode               : Variable
    Bit rate                    : 1 699 kb/s
    Channel(s)                  : 2 channels
    Sampling rate               : 48.0 kHz
    Frame rate                  : 93.750 FPS (512 SPF)
    Bit depth                   : 24 bits
    Compression mode            : Lossless
    Stream size                 : 982 MiB (6%)
    Language                    : English
    Default                     : No
    Forced                      : No
    Original source medium      : Blu-ray

    Text
    ID                          : 4
    Format                      : UTF-8
    Codec ID                    : S_TEXT/UTF8
    Codec ID/Info               : UTF-8 Plain Text
    Duration                    : 1 h 15 min
    Bit rate                    : 64 b/s
    Count of elements           : 998
    Stream size                 : 35.6 KiB (0%)
    Language                    : Spanish
    Default                     : No
    Forced                      : No

    Menu
    00:00:00.000                : Chapter 01
    00:05:55.146                : Chapter 02
    00:12:32.835                : Chapter 03
    00:20:39.655                : Chapter 04
    00:27:01.244                : Chapter 05
    00:33:52.447                : Chapter 06
    00:39:30.868                : Chapter 07
    00:47:44.069                : Chapter 08
    00:54:28.098                : Chapter 09
    01:02:10.268                : Chapter 10
    01:06:17.723                : Chapter 11
    01:12:35.017                : Chapter 12

  • Peso: 15.2 GiB

Sinopsis

Ben Healy es un agradable personaje que trabaja para su padre, «Big Ben» , un tiránico distribuidor de material deportivo, que se está postulando para alcalde.A Ben le encantaría tener un hijo, pero su odiosa esposa Flo, no ha sido capaz de concebir hijos , Ben y Flo van a un orfanato a adoptar un hijo. Entonces el director del orfanato Igor Peabody , les habla sobre un niño de 7 años llamado Junior .

 

 

Latino: AC3 2.0  –  Ingles: DTS-HD MA 2.0

Ficha técnica

Video trailer de la película

Enlaces de descarga

Rip de Bluray

Descargar Problem Child (1990) REMUX 1080p Latino – CMHDD


Aportes de DPeliculasHDmega la pass es:dpeliculashdmega.org Aportes de CinemaniaHD la pass es:cinemaniahdd.com
Guardado en : Comedia

Películas relacionadas

descargar Problem Child (1990) REMUX 1080p Latino – CMHDD Full 1080p 1080p gratis, Problem Child (1990) REMUX 1080p Latino – CMHDD Full 1080p mega 1 link, Problem Child (1990) REMUX 1080p Latino – CMHDD Full 1080p pelicula completa, descargar Problem Child (1990) REMUX 1080p Latino – CMHDD Full 1080p gratis en mega.

Problem Child (1990) REMUX 1080p Latino – CMHDD pelicula full hd, Problem Child (1990) REMUX 1080p Latino – CMHDD mega latino, Problem Child (1990) REMUX 1080p Latino – CMHDD 4k latino, Problem Child (1990) REMUX 1080p Latino – CMHDD pelicula completa, Problem Child (1990) REMUX 1080p Latino – CMHDD descargar gratis, descargar Problem Child (1990) REMUX 1080p Latino – CMHDD pelicula latino, Problem Child (1990) REMUX 1080p Latino – CMHDD 1 link mega, Problem Child (1990) REMUX 1080p Latino – CMHDD 1 link google drive, Problem Child (1990) REMUX 1080p Latino – CMHDD hd 1080p latino.
Comentarios 0