Prison Break (2017) Temporada 5 Full 1080p Latino

2.026 vistas
1 estrella2 estrellas3 estrellas4 estrellas5 estrellas (2 votos, promedio: 3,00 de 5)
Cargando…

Información de Prison Break (2017) Temporada 5 Full 1080p Latino

Datos de la película

  • Calidad: Full 1080p
  • Audio: Español Latino AC3 2.0 DVD - Ingles DTS 5.1 BLURAY
  • Subtitulos: Español Latino PGS - Ingles PGS
  • Resolución: 1920x1080p
  • Formato: MKV
  • Codec: H.264
  • Encoder: Dpelis
  • Mediainfo: Clic para Mostrar Datos Ver
  • Prison Break S05E01 Full 1080p Latino.mkv
    Format                      : Matroska
    Format version              : Version 4 / Version 2
    File size                   : 2.00 GiB
    Duration                    : 43 min 2 s
    Overall bit rate            : 6 640 kb/s
    Movie name                  : DPeliculasHDMega.ORG 
    Encoded date                : UTC 2017-10-28 23:54:15 / UTC 2017-09-17T17:55:11Z
    Writing application         : mkvmerge v10.0.0 ('To Drown In You') 64bit
    Writing library             : libebml v1.3.4 + libmatroska v1.4.5 / Lavf57.7.2

    Video
    ID                          : 1
    Format                      : AVC
    Format/Info                 : Advanced Video Codec
    Format profile              : [email protected]
    Format settings, CABAC      : Yes
    Format settings, RefFrames  : 4 frames
    Codec ID                    : V_MPEG4/ISO/AVC
    Duration                    : 43 min 2 s
    Bit rate                    : 4 615 kb/s
    Width                       : 1 920 pixels
    Height                      : 1 080 pixels
    Display aspect ratio        : 16:9
    Frame rate mode             : Constant
    Frame rate                  : 23.976 (24000/1001) FPS
    Color space                 : YUV
    Chroma subsampling          : 4:2:0
    Bit depth                   : 8 bits
    Scan type                   : Progressive
    Bits/(Pixel*Frame)          : 0.093
    Stream size                 : 1.39 GiB (70%)
    Writing library             : x264 core 148 r2708 86b7198
    Encoding settings           : cabac=1 / ref=4 / deblock=1:0:0 / analyse=0x3:0x133 / me=umh / subme=9 / psy=1 / psy_rd=1.00:0.00 / mixed_ref=1 / me_range=16 / chroma_me=1 / trellis=2 / 8x8dct=1 / cqm=0 / deadzone=21,11 / fast_pskip=1 / chroma_qp_offset=-2 / threads=34 / lookahead_threads=2 / sliced_threads=0 / nr=0 / decimate=1 / interlaced=0 / bluray_compat=0 / constrained_intra=0 / bframes=3 / b_pyramid=2 / b_adapt=2 / b_bias=0 / direct=3 / weightb=1 / open_gop=0 / weightp=2 / keyint=240 / keyint_min=24 / scenecut=40 / intra_refresh=0 / rc_lookahead=60 / rc=crf / mbtree=1 / crf=21.0 / qcomp=0.60 / qpmin=0 / qpmax=69 / qpstep=4 / vbv_maxrate=62500 / vbv_bufsize=78125 / crf_max=0.0 / nal_hrd=none / filler=0 / ip_ratio=1.40 / aq=1:1.00
    Default                     : Yes
    Forced                      : No
    Color range                 : Limited
    Color primaries             : BT.709
    Transfer characteristics    : BT.709
    Matrix coefficients         : BT.709
    Statistics Tags Issue       : mkvmerge v10.0.0 ('To Drown In You') 64bit 2017-10-28 23:54:15 / mkvmerge v10.0.0 ('To Drown In You') 64bit 2017-10-28 23:54:15 / UTC 2017-09-17T17:55:11Z
    FromStats_BitRate           : 4714936
    FromStats_Duration          : 00:43:02.539000000
    FromStats_FrameCount        : 61919
    FromStats_StreamSize        : 1522063282

    Audio #1
    ID                          : 2
    Format                      : AC-3
    Format/Info                 : Audio Coding 3
    Format settings, Endianness : Big
    Codec ID                    : A_AC3
    Duration                    : 43 min 2 s
    Bit rate mode               : Constant
    Bit rate                    : 192 kb/s
    Channel(s)                  : 2 channels
    Channel positions           : Front: L R
    Sampling rate               : 48.0 kHz
    Frame rate                  : 31.250 FPS (1536 SPF)
    Bit depth                   : 16 bits
    Compression mode            : Lossy
    Stream size                 : 60 MiB (6%)
    Language                    : Spanish
    Service kind                : Complete Main
    Default                     : Yes
    Forced                      : No
    Statistics Tags Issue       : mkvmerge v10.0.0 ('To Drown In You') 64bit 2017-10-28 23:54:15 / mkvmerge v10.0.0 ('To Drown In You') 64bit 2017-10-28 23:54:15 / UTC 2017-09-17T17:55:11Z
    FromStats_BitRate           : 384000
    FromStats_Duration          : 00:43:01.056000000
    FromStats_FrameCount        : 80658
    FromStats_StreamSize        : 123890688

    Audio #2
    ID                          : 3
    Format                      : DTS
    Format/Info                 : Digital Theater Systems
    Mode                        : 16
    Format settings, Endianness : Big
    Codec ID                    : A_DTS
    Duration                    : 43 min 2 s
    Bit rate mode               : Constant
    Bit rate                    : 1 509 kb/s
    Channel(s)                  : 6 channels
    Channel positions           : Front: L C R, Side: L R, LFE
    Sampling rate               : 48.0 kHz
    Frame rate                  : 93.750 FPS (512 SPF)
    Bit depth                   : 24 bits
    Compression mode            : Lossy
    Stream size                 : 465 MiB (23%)
    Title                       : Surround
    Language                    : English
    Default                     : No
    Forced                      : No
    Statistics Tags Issue       : mkvmerge v10.0.0 ('To Drown In You') 64bit 2017-10-28 23:54:15 / mkvmerge v10.0.0 ('To Drown In You') 64bit 2017-10-28 23:54:15 / UTC 2017-09-17T17:55:11Z
    FromStats_BitRate           : 1509000
    FromStats_Duration          : 00:43:01.120000000
    FromStats_FrameCount        : 241980
    FromStats_StreamSize        : 486863760

    Text #1
    ID                          : 4
    Format                      : PGS
    Muxing mode                 : zlib
    Codec ID                    : S_HDMV/PGS
    Codec ID/Info               : Picture based subtitle format used on BDs/HD-DVDs
    Language                    : Spanish
    Default                     : No
    Forced                      : No
    Statistics Tags Issue       : mkvmerge v10.0.0 ('To Drown In You') 64bit 2017-10-28 23:54:15 / mkvmerge v10.0.0 ('To Drown In You') 64bit 2017-10-28 23:54:15 / UTC 2017-09-17T17:55:11Z
    FromStats_BitRate           : 15687
    FromStats_Duration          : 00:42:57.783000000
    FromStats_FrameCount        : 1000
    FromStats_StreamSize        : 5054725

    Text #2
    ID                          : 5
    Format                      : PGS
    Muxing mode                 : zlib
    Codec ID                    : S_HDMV/PGS
    Codec ID/Info               : Picture based subtitle format used on BDs/HD-DVDs
    Language                    : English
    Default                     : No
    Forced                      : No
    Statistics Tags Issue       : mkvmerge v10.0.0 ('To Drown In You') 64bit 2017-10-28 23:54:15 / mkvmerge v10.0.0 ('To Drown In You') 64bit 2017-10-28 23:54:15 / UTC 2017-09-17T17:55:11Z
    FromStats_BitRate           : 15379
    FromStats_Duration          : 00:42:08.359000000
    FromStats_FrameCount        : 1032
    FromStats_StreamSize        : 4860660

    Menu
    00:00:00.000                : :Chapter 1
    00:01:18.996                : :Chapter 2
    00:06:41.234                : :Chapter 3
    00:16:38.539                : :Chapter 4
    00:21:58.108                : :Chapter 5
    00:26:48.565                : :Chapter 6
    00:33:10.322                : :Chapter 7
    00:42:25.043                : :Chapter 8

  • Peso: 2 GB C/U - 17 GB Total

Sinopsis

En el regreso de la serie, los protagonistas de la original Prison Break, Wentworth Miller, Dominic Purcell, Sarah Wayne Callies, Amaury Nolasco, Robert Knepper, Rockmond Dunbar y Paul Adelstein se reúnen para embarcarse en una nueva aventura por todo el mundo con las emociones y momentos clave de la serie original.

Ficha técnica

Video trailer de la película

Enlaces de descarga

Rip de Bluray

Descargar Prison Break (2017) Temporada 5 Full 1080p Latino




Aportes de DPeliculasHDmega la pass es:dpeliculashdmega.org Aportes de CinemaniaHD la pass es:cinemaniahdd.com

Películas relacionadas

Comentarios 5
  • criss - 30 octubre, 2017

    la estaba esperando, muchas gracias por compartir la serie completa

  • josue - 29 octubre, 2017

    gracias justo estaba descargando las otras temporadas y me llevo esta sorpresa, Gracias solo tengo una duda por esta temporada pesa la mitad que las otras solo tengo esa duda

    • sas sds - 29 octubre, 2017

      son 9 capitulos

      • josue - 29 octubre, 2017

        Bueno me referia al peso de los capitulos ya que los anteriores casi alcanzaban los 4gbs, bueno igual ya me los estoy descargando,

        Ah tenia una duda no tiene nada que ver con el tema veo que no esta la pelicula poesia sin fin ya la tenia descargada por la mitad, pero me importaria descargarla de nuevo, ojala la puedan volver a poner

        • dpelis - 29 octubre, 2017

          poesia tirne los sub pegados ingles, asi viene el bluray. a le baje un crf, de 20 a 21, qdara un poco liviana.