×

¿Problemas para descargar con Mozilla, EDGE? Deshabilita la opción "Abrir vinculos en una pestaña nueva" tal como lo muestra ésta imagen.

El Príncipe de Persia: Las Arenas del Tiempo (2010) REMUX 1080p Latino

474 vistas

Información de El Príncipe de Persia: Las Arenas del Tiempo (2010) REMUX 1080p Latino

Datos de la película

  • Calidad: Full 1080p
  • Audio: Español Latino AC3 5.1 BLURAY - Ingles DTS 5.1 BLURAY
  • Subtitulos: Español Latino PGS - Ingles PGS
  • Resolución: 1920x1080p
  • Formato: MKV
  • Codec: H.264
  • Encoder: CinefiloCool
  • Mediainfo: Clic para Mostrar Datos Ver
  • El principe de Persia Las arenas del tiempo (2010) REMUX 1080p Latino-CMHDD.mkv
    Format                      : Matroska
    Format version              : Version 4
    File size                   : 20.0 GiB
    Duration                    : 1 h 55 min
    Overall bit rate mode       : Variable
    Overall bit rate            : 24.7 Mb/s
    Movie name                  : Prince of Persia - The Sands of Time (2010) CinemaniaHDD.Net
    Encoded date                : UTC 2022-03-01 04:04:23
    Writing application         : mkvmerge v56.1.0 ('My Friend') 64-bit
    Writing library             : libebml v1.4.2 + libmatroska v1.6.4
    Attachments                 : CINEMANIAHD.png

    Video
    ID                          : 1
    Format                      : AVC
    Format/Info                 : Advanced Video Codec
    Format profile              : High@L4.1
    Format settings             : CABAC / 4 Ref Frames
    Format settings, CABAC      : Yes
    Format settings, Reference  : 4 frames
    Codec ID                    : V_MPEG4/ISO/AVC
    Duration                    : 1 h 55 min
    Bit rate mode               : Variable
    Bit rate                    : 19.9 Mb/s
    Maximum bit rate            : 32.0 Mb/s
    Width                       : 1 920 pixels
    Height                      : 1 080 pixels
    Display aspect ratio        : 16:9
    Frame rate mode             : Constant
    Frame rate                  : 23.976 (24000/1001) FPS
    Color space                 : YUV
    Chroma subsampling          : 4:2:0
    Bit depth                   : 8 bits
    Scan type                   : Progressive
    Bits/(Pixel*Frame)          : 0.399
    Stream size                 : 16.1 GiB (80%)
    Title                       : REMUX HD1080p [CinemaniaHDD]
    Default                     : Yes
    Forced                      : Yes
    Color range                 : Limited
    Color primaries             : BT.709
    Transfer characteristics    : BT.709
    Matrix coefficients         : BT.709

    Audio #1
    ID                          : 2
    Format                      : AC-3
    Format/Info                 : Audio Coding 3
    Commercial name             : Dolby Digital
    Codec ID                    : A_AC3
    Duration                    : 1 h 55 min
    Bit rate mode               : Constant
    Bit rate                    : 640 kb/s
    Channel(s)                  : 6 channels
    Channel layout              : L R C LFE Ls Rs
    Sampling rate               : 48.0 kHz
    Frame rate                  : 31.250 FPS (1536 SPF)
    Compression mode            : Lossy
    Stream size                 : 531 MiB (3%)
    Title                       : Español Latino [CinemaniaHDD]
    Language                    : Spanish
    Service kind                : Complete Main
    Default                     : Yes
    Forced                      : Yes

    Audio #2
    ID                          : 3
    Format                      : DTS XLL
    Format/Info                 : Digital Theater Systems
    Commercial name             : DTS-HD Master Audio
    Codec ID                    : A_DTS
    Duration                    : 1 h 55 min
    Bit rate mode               : Variable
    Bit rate                    : 4 197 kb/s
    Channel(s)                  : 6 channels
    Channel layout              : C L R Ls Rs LFE
    Sampling rate               : 48.0 kHz
    Frame rate                  : 93.750 FPS (512 SPF)
    Bit depth                   : 24 bits
    Compression mode            : Lossless
    Stream size                 : 3.40 GiB (17%)
    Title                       : Ingles [CinemaniaHDD]
    Language                    : English
    Default                     : No
    Forced                      : No

    Text #1
    ID                          : 4
    Format                      : PGS
    Muxing mode                 : zlib
    Codec ID                    : S_HDMV/PGS
    Codec ID/Info               : Picture based subtitle format used on BDs/HD-DVDs
    Duration                    : 1 h 48 min
    Bit rate                    : 423 b/s
    Count of elements           : 290
    Stream size                 : 338 KiB (0%)
    Title                       : Forzados-PGS [CinemaniaHDD]
    Language                    : Spanish
    Default                     : No
    Forced                      : No

    Text #2
    ID                          : 5
    Format                      : PGS
    Muxing mode                 : zlib
    Codec ID                    : S_HDMV/PGS
    Codec ID/Info               : Picture based subtitle format used on BDs/HD-DVDs
    Duration                    : 1 h 48 min
    Bit rate                    : 28.2 kb/s
    Count of elements           : 2126
    Stream size                 : 22.0 MiB (0%)
    Title                       : Español-PGS [CinemaniaHDD]
    Language                    : Spanish
    Default                     : No
    Forced                      : No

    Text #3
    ID                          : 6
    Format                      : PGS
    Muxing mode                 : zlib
    Codec ID                    : S_HDMV/PGS
    Codec ID/Info               : Picture based subtitle format used on BDs/HD-DVDs
    Duration                    : 1 h 47 min
    Bit rate                    : 30.8 kb/s
    Count of elements           : 2362
    Stream size                 : 23.7 MiB (0%)
    Title                       : Ingles-PGS [CinemaniaHDD]
    Language                    : English
    Default                     : No
    Forced                      : No

    Text #4
    ID                          : 7
    Format                      : UTF-8
    Codec ID                    : S_TEXT/UTF8
    Codec ID/Info               : UTF-8 Plain Text
    Duration                    : 1 h 48 min
    Bit rate                    : 0 b/s
    Count of elements           : 12
    Stream size                 : 488 Bytes (0%)
    Title                       : Forzados-SRT [CinemaniaHDD]
    Language                    : Spanish
    Default                     : Yes
    Forced                      : Yes

    Text #5
    ID                          : 8
    Format                      : UTF-8
    Codec ID                    : S_TEXT/UTF8
    Codec ID/Info               : UTF-8 Plain Text
    Duration                    : 1 h 48 min
    Bit rate                    : 44 b/s
    Count of elements           : 1010
    Stream size                 : 35.4 KiB (0%)
    Title                       : Español-SRT [CinemaniaHDD]
    Language                    : Spanish
    Default                     : No
    Forced                      : No

    Menu
    00:00:00.000                : Chapter 01
    00:04:24.556                : Chapter 02
    00:08:37.392                : Chapter 03
    00:16:52.762                : Chapter 04
    00:22:51.578                : Chapter 05
    00:29:07.787                : Chapter 06
    00:32:57.850                : Chapter 07
    00:36:58.174                : Chapter 08
    00:40:31.095                : Chapter 09
    00:46:08.265                : Chapter 10
    00:58:00.727                : Chapter 11
    01:00:17.029                : Chapter 12
    01:07:01.100                : Chapter 13
    01:10:47.743                : Chapter 14
    01:15:46.458                : Chapter 15
    01:20:37.123                : Chapter 16
    01:27:37.293                : Chapter 17
    01:32:19.366                : Chapter 18
    01:40:51.669                : Chapter 19
    01:48:29.752                : Chapter 20
    01:55:53.237                : Chapter 21

  • Peso: 20.0 GiB

Sinopsis

Descargar El Príncipe de Persia: Las Arenas del Tiempo (2010) REMUX 1080p Latino. La historia comienza cuando un rey y su hijo derrotan al Maharajá, gracias a la traición de su visir. Entre los exóticos tesoros del Maharajá se encuentra un enorme reloj de arena y una daga. Solamente el visir conoce el terrible poder de estos objetos, quien engaña al protagonista para que libere las arenas del tiempo. Este acto convierte en criaturas de arena a casi todos los presentes, incluido el rey, padre del protagonista. Éste debe buscar la manera de deshacer el entuerto. En su aventura, contará con la ayuda de Farah, hija del depuesto Maharajah.

Disponible Solo Para VIP!!!

Ficha técnica

Video trailer de la película

Enlaces de descarga

Rip de Bluray

Descargar El Príncipe de Persia: Las Arenas del Tiempo (2010) REMUX 1080p Latino


Aportes de DPeliculasHDmega la pass es:dpeliculashdmega.org Aportes de CinemaniaHD la pass es:cinemaniahdd.com
Guardado en : Acción , Aventura , Fantasía , Remux

Películas relacionadas

descargar El Príncipe de Persia: Las Arenas del Tiempo (2010) REMUX 1080p Latino Full 1080p 1080p gratis, El Príncipe de Persia: Las Arenas del Tiempo (2010) REMUX 1080p Latino Full 1080p mega 1 link, El Príncipe de Persia: Las Arenas del Tiempo (2010) REMUX 1080p Latino Full 1080p pelicula completa, descargar El Príncipe de Persia: Las Arenas del Tiempo (2010) REMUX 1080p Latino Full 1080p gratis en mega.

El Príncipe de Persia: Las Arenas del Tiempo (2010) REMUX 1080p Latino pelicula full hd, El Príncipe de Persia: Las Arenas del Tiempo (2010) REMUX 1080p Latino mega latino, El Príncipe de Persia: Las Arenas del Tiempo (2010) REMUX 1080p Latino 4k latino, El Príncipe de Persia: Las Arenas del Tiempo (2010) REMUX 1080p Latino pelicula completa, El Príncipe de Persia: Las Arenas del Tiempo (2010) REMUX 1080p Latino descargar gratis, descargar El Príncipe de Persia: Las Arenas del Tiempo (2010) REMUX 1080p Latino pelicula latino, El Príncipe de Persia: Las Arenas del Tiempo (2010) REMUX 1080p Latino 1 link mega, El Príncipe de Persia: Las Arenas del Tiempo (2010) REMUX 1080p Latino 1 link google drive, El Príncipe de Persia: Las Arenas del Tiempo (2010) REMUX 1080p Latino hd 1080p latino.
Comentarios 0