×

¿Problemas para descargar con Mozilla, EDGE? Deshabilita la opción "Abrir vinculos en una pestaña nueva" tal como lo muestra ésta imagen.

El Príncipe de Persia: Las Arenas del Tiempo (2010) 1080p Latino

307 vistas

Información de El Príncipe de Persia: Las Arenas del Tiempo (2010) 1080p Latino

Datos de la película

  • Calidad: 1080p
  • Audio: Español Latino AC3 5.1 BLURAY - Ingles AC3 5.1 BLURAY
  • Subtitulos: Español Latino SRT - Ingles SRT
  • Resolución: 1920x800p
  • Formato: MKV
  • Codec: H.264
  • Encoder: CinefiloCool
  • Mediainfo: Clic para Mostrar Datos Ver
  • El principe de Persia Las arenas del tiempo (2010) HD 1080p Latino-CMHDD.mkv
    Format                      : Matroska
    Format version              : Version 4
    File size                   : 4.10 GiB
    Duration                    : 1 h 55 min
    Overall bit rate mode       : Variable
    Overall bit rate            : 5 065 kb/s
    Movie name                  : Prince of Persia - The Sands of Time (2010) CinemaniaHDD.Net
    Encoded date                : UTC 2023-05-31 05:40:40
    Writing application         : mkvmerge v56.1.0 ('My Friend') 64-bit
    Writing library             : libebml v1.4.2 + libmatroska v1.6.4
    Attachments                 : CINEMANIAHD.png

    Video
    ID                          : 1
    Format                      : AVC
    Format/Info                 : Advanced Video Codec
    Format profile              : High@L4.2
    Format settings             : CABAC / 5 Ref Frames
    Format settings, CABAC      : Yes
    Format settings, Reference  : 5 frames
    Codec ID                    : V_MPEG4/ISO/AVC
    Duration                    : 1 h 55 min
    Bit rate mode               : Variable
    Bit rate                    : 3 974 kb/s
    Width                       : 1 920 pixels
    Height                      : 800 pixels
    Display aspect ratio        : 2.40:1
    Frame rate mode             : Constant
    Frame rate                  : 23.976 (24000/1001) FPS
    Color space                 : YUV
    Chroma subsampling          : 4:2:0
    Bit depth                   : 8 bits
    Scan type                   : Progressive
    Bits/(Pixel*Frame)          : 0.108
    Stream size                 : 3.22 GiB (78%)
    Title                       : HD1080p [CinemaniaHDD]
    Writing library             : x264 core 163 r3059 b684ebe0
    Encoding settings           : cabac=1 / ref=5 / deblock=1:-1:-1 / analyse=0x3:0x133 / me=umh / subme=9 / psy=1 / psy_rd=1.00:0.15 / mixed_ref=1 / me_range=16 / chroma_me=1 / trellis=2 / 8x8dct=1 / cqm=0 / deadzone=21,11 / fast_pskip=1 / chroma_qp_offset=-3 / threads=24 / lookahead_threads=2 / sliced_threads=0 / nr=0 / decimate=1 / interlaced=0 / bluray_compat=0 / constrained_intra=0 / bframes=3 / b_pyramid=2 / b_adapt=2 / b_bias=0 / direct=3 / weightb=1 / open_gop=0 / weightp=2 / keyint=240 / keyint_min=24 / scenecut=40 / intra_refresh=0 / rc_lookahead=60 / rc=crf / mbtree=1 / crf=23.0 / qcomp=0.60 / qpmin=0 / qpmax=69 / qpstep=4 / vbv_maxrate=62500 / vbv_bufsize=78125 / crf_max=0.0 / nal_hrd=vbr / filler=0 / ip_ratio=1.40 / aq=1:1.00
    Default                     : Yes
    Forced                      : Yes
    Color range                 : Limited
    Color primaries             : BT.709
    Transfer characteristics    : BT.709
    Matrix coefficients         : BT.709

    Audio #1
    ID                          : 2
    Format                      : AC-3
    Format/Info                 : Audio Coding 3
    Commercial name             : Dolby Digital
    Codec ID                    : A_AC3
    Duration                    : 1 h 55 min
    Bit rate mode               : Constant
    Bit rate                    : 640 kb/s
    Channel(s)                  : 6 channels
    Channel layout              : L R C LFE Ls Rs
    Sampling rate               : 48.0 kHz
    Frame rate                  : 31.250 FPS (1536 SPF)
    Compression mode            : Lossy
    Delay relative to video     : -5 ms
    Stream size                 : 531 MiB (13%)
    Title                       : Español Latino [CinemaniaHDD]
    Language                    : Spanish
    Service kind                : Complete Main
    Default                     : Yes
    Forced                      : Yes

    Audio #2
    ID                          : 3
    Format                      : AC-3
    Format/Info                 : Audio Coding 3
    Commercial name             : Dolby Digital
    Codec ID                    : A_AC3
    Duration                    : 1 h 55 min
    Bit rate mode               : Constant
    Bit rate                    : 448 kb/s
    Channel(s)                  : 6 channels
    Channel layout              : L R C LFE Ls Rs
    Sampling rate               : 48.0 kHz
    Frame rate                  : 31.250 FPS (1536 SPF)
    Compression mode            : Lossy
    Delay relative to video     : -5 ms
    Stream size                 : 371 MiB (9%)
    Title                       : Ingles [CinemaniaHDD]
    Language                    : English
    Service kind                : Complete Main
    Default                     : No
    Forced                      : No

    Text #1
    ID                          : 4
    Format                      : UTF-8
    Codec ID                    : S_TEXT/UTF8
    Codec ID/Info               : UTF-8 Plain Text
    Duration                    : 1 h 48 min
    Bit rate                    : 0 b/s
    Count of elements           : 12
    Stream size                 : 488 Bytes (0%)
    Title                       : Forzados-SRT [CinemaniaHDD]
    Language                    : Spanish
    Default                     : Yes
    Forced                      : Yes

    Text #2
    ID                          : 5
    Format                      : UTF-8
    Codec ID                    : S_TEXT/UTF8
    Codec ID/Info               : UTF-8 Plain Text
    Duration                    : 1 h 48 min
    Bit rate                    : 44 b/s
    Count of elements           : 1010
    Stream size                 : 35.4 KiB (0%)
    Title                       : Español-SRT [CinemaniaHDD]
    Language                    : Spanish
    Default                     : No
    Forced                      : No

    Text #3
    ID                          : 6
    Format                      : UTF-8
    Codec ID                    : S_TEXT/UTF8
    Codec ID/Info               : UTF-8 Plain Text
    Duration                    : 1 h 46 min
    Bit rate                    : 49 b/s
    Count of elements           : 1146
    Stream size                 : 38.4 KiB (0%)
    Title                       : Ingles-SRT [CinemaniaHDD]
    Language                    : English
    Default                     : No
    Forced                      : No

    Menu
    00:00:00.000                : Chapter 01
    00:04:24.556                : Chapter 02
    00:08:37.392                : Chapter 03
    00:16:52.762                : Chapter 04
    00:22:51.578                : Chapter 05
    00:29:07.787                : Chapter 06
    00:32:57.850                : Chapter 07
    00:36:58.174                : Chapter 08
    00:40:31.095                : Chapter 09
    00:46:08.265                : Chapter 10
    00:58:00.727                : Chapter 11
    01:00:17.029                : Chapter 12
    01:07:01.100                : Chapter 13
    01:10:47.743                : Chapter 14
    01:15:46.458                : Chapter 15
    01:20:37.123                : Chapter 16
    01:27:37.293                : Chapter 17
    01:32:19.366                : Chapter 18
    01:40:51.669                : Chapter 19
    01:48:29.752                : Chapter 20
    01:55:53.237                : Chapter 21

  • Peso: 4.10 GiB

Sinopsis

Descargar El Príncipe de Persia: Las Arenas del Tiempo (2010) 1080p Latino. La historia comienza cuando un rey y su hijo derrotan al Maharajá, gracias a la traición de su visir. Entre los exóticos tesoros del Maharajá se encuentra un enorme reloj de arena y una daga. Solamente el visir conoce el terrible poder de estos objetos, quien engaña al protagonista para que libere las arenas del tiempo. Este acto convierte en criaturas de arena a casi todos los presentes, incluido el rey, padre del protagonista. Éste debe buscar la manera de deshacer el entuerto. En su aventura, contará con la ayuda de Farah, hija del depuesto Maharajah.

Ficha técnica

Video trailer de la película

Enlaces de descarga

Rip de Bluray

Descargar El Príncipe de Persia: Las Arenas del Tiempo (2010) 1080p Latino




Aportes de DPeliculasHDmega la pass es:dpeliculashdmega.org Aportes de CinemaniaHD la pass es:cinemaniahdd.com Aportes recientes:cinemaniahdd.net
Guardado en : Acción , Aventura , Fantasía , HD 1080p

Películas relacionadas

  • The Lego Movie (2014) REMUX 4K HDR Latino – CMHDD

    The Lego Movie (2014) REMUX 4K HDR Latino – CMHDD

    2014
    The Lego Movie (2014) REMUX 4K HDR Latino – CMHDD

    1h 40m 2014

    Película basada en los clásicos juguetes LEGO. Emmet, el protagonista de la película, trabaja como...

    Director: Vernessa Cook

    Género: Animación

    Actores: Will Forte

  • The Lego Movie (2014) REMUX 1080p Latino – CMHDD

    The Lego Movie (2014) REMUX 1080p Latino – CMHDD

    2014
    The Lego Movie (2014) REMUX 1080p Latino – CMHDD

    1h 40m 2014

    Película basada en los clásicos juguetes LEGO. Emmet, el protagonista de la película, trabaja como...

    Director: Vernessa Cook

    Género: Animación

    Actores: Will Forte

  • Familia Nacional (2023) WEB-DL 1080p Latino

    Familia Nacional (2023) WEB-DL 1080p Latino

    2023
    Familia Nacional (2023) WEB-DL 1080p Latino

    1h 43m 2023

    Descargar Familia Nacional (2023) WEB-DL 1080p Latino. Don Poli es el patriarca de una familia disfuncional...

    Director: Marcelo Tobar

    Género: Acción

    Actores: Tadeo Tovar

descargar El Príncipe de Persia: Las Arenas del Tiempo (2010) 1080p Latino 1080p 1080p gratis, El Príncipe de Persia: Las Arenas del Tiempo (2010) 1080p Latino 1080p mega 1 link, El Príncipe de Persia: Las Arenas del Tiempo (2010) 1080p Latino 1080p pelicula completa, descargar El Príncipe de Persia: Las Arenas del Tiempo (2010) 1080p Latino 1080p gratis en mega.

El Príncipe de Persia: Las Arenas del Tiempo (2010) 1080p Latino pelicula full hd, El Príncipe de Persia: Las Arenas del Tiempo (2010) 1080p Latino mega latino, El Príncipe de Persia: Las Arenas del Tiempo (2010) 1080p Latino 4k latino, El Príncipe de Persia: Las Arenas del Tiempo (2010) 1080p Latino pelicula completa, El Príncipe de Persia: Las Arenas del Tiempo (2010) 1080p Latino descargar gratis, descargar El Príncipe de Persia: Las Arenas del Tiempo (2010) 1080p Latino pelicula latino, El Príncipe de Persia: Las Arenas del Tiempo (2010) 1080p Latino 1 link mega, El Príncipe de Persia: Las Arenas del Tiempo (2010) 1080p Latino 1 link google drive, El Príncipe de Persia: Las Arenas del Tiempo (2010) 1080p Latino hd 1080p latino.
Comentarios 0