×

¿Problemas para descargar con Mozilla, EDGE? Deshabilita la opción "Abrir vinculos en una pestaña nueva" tal como lo muestra ésta imagen.

Prime Time (2021) NF WEB-DL 1080p Latino

141 vistas

Información de Prime Time (2021) NF WEB-DL 1080p Latino

Datos de la película

  • Calidad: 1080p
  • Audio: Español Latino AC3 5.1 WEB-DL - Ingles AC3 5.1 WEB-DL
  • Subtitulos: Español Latino SRT- FORZADOS SRT
  • Resolución: 1920x1080
  • Formato: MKV
  • Codec: H.264
  • Encoder: cinemaniahdd
  • Mediainfo: Clic para Mostrar Datos Ver
  • Prime Time (2021) NF WEB-DL 1080p Latino [CNMNHDD].mkv
    Format                      : Matroska
    Format version              : Version 4
    File size                   : 2.49 GiB
    Duration                    : 1 h 32 min
    Overall bit rate mode       : Variable
    Overall bit rate            : 3 860 kb/s
    Movie name                  : Prime Time (2021) - CinemaniaHDD.Net
    Encoded date                : UTC 2021-07-01 00:23:29
    Writing application         : mkvmerge v43.0.0 ('The Quartermaster') 64-bit
    Writing library             : libebml v1.3.10 + libmatroska v1.5.2

    Video
    ID                          : 1
    Format                      : AVC
    Format/Info                 : Advanced Video Codec
    Format profile              : Main@L4
    Format settings             : CABAC / 3 Ref Frames
    Format settings, CABAC      : Yes
    Format settings, Reference  : 3 frames
    Codec ID                    : V_MPEG4/ISO/AVC
    Duration                    : 1 h 32 min
    Bit rate mode               : Variable
    Bit rate                    : 3 160 kb/s
    Maximum bit rate            : 4 740 kb/s
    Width                       : 1 920 pixels
    Height                      : 1 080 pixels
    Display aspect ratio        : 16:9
    Frame rate mode             : Constant
    Frame rate                  : 25.000 FPS
    Color space                 : YUV
    Chroma subsampling          : 4:2:0
    Bit depth                   : 8 bits
    Scan type                   : Progressive
    Bits/(Pixel*Frame)          : 0.061
    Stream size                 : 1.99 GiB (80%)
    Title                       : CinemaniaHDD
    Writing library             : x264 core 148 r2722 1b0121b
    Encoding settings           : cabac=1 / ref=3 / deblock=1:0:0 / analyse=0x1:0x111 / me=umh / subme=10 / psy=1 / psy_rd=1.00:0.00 / mixed_ref=1 / me_range=24 / chroma_me=1 / trellis=2 / 8x8dct=0 / cqm=0 / deadzone=21,11 / fast_pskip=1 / chroma_qp_offset=-2 / threads=8 / lookahead_threads=1 / sliced_threads=0 / nr=0 / decimate=1 / interlaced=0 / bluray_compat=0 / stitchable=1 / constrained_intra=0 / bframes=2 / b_pyramid=0 / b_adapt=2 / b_bias=0 / direct=3 / weightb=1 / open_gop=0 / weightp=2 / keyint=250 / keyint_min=25 / scenecut=0 / intra_refresh=0 / rc_lookahead=50 / rc=2pass / mbtree=1 / bitrate=3160 / ratetol=1.0 / qcomp=0.50 / qpmin=6 / qpmax=51 / qpstep=4 / cplxblur=20.0 / qblur=0.5 / vbv_maxrate=4740 / vbv_bufsize=6320 / nal_hrd=vbr / filler=0 / ip_ratio=1.40 / aq=1:1.00
    Default                     : Yes
    Forced                      : No

    Audio #1
    ID                          : 2
    Format                      : AC-3
    Format/Info                 : Audio Coding 3
    Commercial name             : Dolby Digital
    Codec ID                    : A_AC3
    Duration                    : 1 h 32 min
    Bit rate mode               : Constant
    Bit rate                    : 384 kb/s
    Channel(s)                  : 6 channels
    Channel layout              : L R C LFE Ls Rs
    Sampling rate               : 48.0 kHz
    Frame rate                  : 31.250 FPS (1536 SPF)
    Compression mode            : Lossy
    Stream size                 : 253 MiB (10%)
    Title                       : Español latino [CinemaniaHDD]
    Language                    : Spanish
    Service kind                : Complete Main
    Default                     : Yes
    Forced                      : No

    Audio #2
    ID                          : 3
    Format                      : AC-3
    Format/Info                 : Audio Coding 3
    Commercial name             : Dolby Digital
    Codec ID                    : A_AC3
    Duration                    : 1 h 32 min
    Bit rate mode               : Constant
    Bit rate                    : 384 kb/s
    Channel(s)                  : 6 channels
    Channel layout              : L R C LFE Ls Rs
    Sampling rate               : 48.0 kHz
    Frame rate                  : 31.250 FPS (1536 SPF)
    Compression mode            : Lossy
    Stream size                 : 253 MiB (10%)
    Title                       : Inglés [CinemaniaHDD]
    Language                    : English
    Service kind                : Complete Main
    Default                     : No
    Forced                      : No

    Text #1
    ID                          : 4
    Format                      : UTF-8
    Codec ID                    : S_TEXT/UTF8
    Codec ID/Info               : UTF-8 Plain Text
    Duration                    : 1 h 29 min
    Bit rate                    : 0 b/s
    Count of elements           : 5
    Stream size                 : 94.0 Bytes (0%)
    Title                       : Forzados [CinemaniaHDD]
    Language                    : Spanish
    Default                     : Yes
    Forced                      : Yes

    Text #2
    ID                          : 5
    Format                      : UTF-8
    Codec ID                    : S_TEXT/UTF8
    Codec ID/Info               : UTF-8 Plain Text
    Duration                    : 1 h 29 min
    Bit rate                    : 58 b/s
    Count of elements           : 1276
    Stream size                 : 38.4 KiB (0%)
    Title                       : Español latino [CinemaniaHDD]
    Language                    : Spanish
    Default                     : No
    Forced                      : No

     

  • Peso: 2.49 GiB

Sinopsis

Nochevieja, 1999. Sebastián es un joven de 20 años que, armado con una pistola, secuestra un estudio de TV y toma dos rehenes: un famoso presentador y un guardia de seguridad. ¿Su plan? Nadie, incluido el propio Sebastián, parece saberlo. La demanda de que se transmita su mensaje, sea cual sea, le es denegada una y otra vez por parte de las fuerzas policías y del jefe de la cadena. A medida que se hace de noche, Sebastián y los rehenes entablan una extraña relación mientras los que están en el escalafón más alto de la pirámide hacen todo lo posible por restablecer el orden.

Ficha técnica

Video trailer de la película

Enlaces de descarga

Rip de Bluray

Descargar Prime Time (2021) NF WEB-DL 1080p Latino




Aportes de DPeliculasHDmega la pass es:dpeliculashdmega.org Aportes de CinemaniaHD la pass es:cinemaniahdd.com
Guardado en : Drama , Netflix , Suspenso

Películas relacionadas

descargar Prime Time (2021) NF WEB-DL 1080p Latino 1080p 1080p gratis, Prime Time (2021) NF WEB-DL 1080p Latino 1080p mega 1 link, Prime Time (2021) NF WEB-DL 1080p Latino 1080p pelicula completa, descargar Prime Time (2021) NF WEB-DL 1080p Latino 1080p gratis en mega.

Prime Time (2021) NF WEB-DL 1080p Latino pelicula full hd, Prime Time (2021) NF WEB-DL 1080p Latino mega latino, Prime Time (2021) NF WEB-DL 1080p Latino 4k latino, Prime Time (2021) NF WEB-DL 1080p Latino pelicula completa, Prime Time (2021) NF WEB-DL 1080p Latino descargar gratis, descargar Prime Time (2021) NF WEB-DL 1080p Latino pelicula latino, Prime Time (2021) NF WEB-DL 1080p Latino 1 link mega, Prime Time (2021) NF WEB-DL 1080p Latino 1 link google drive, Prime Time (2021) NF WEB-DL 1080p Latino hd 1080p latino.
Comentarios 0