×

¿Problemas para descargar con Mozilla, EDGE? Deshabilita la opción "Abrir vinculos en una pestaña nueva" tal como lo muestra ésta imagen.

Primate (2024) Segunda Temporada AMZN WEB-DL 1080p Latino

42 vistas

Información de Primate (2024) Segunda Temporada AMZN WEB-DL 1080p Latino

Datos de la película

  • Calidad: 1080p
  • Audio: Español Latino AC3 5.1 WEB-DL - Ingles AC3 5.1 WEB-DL
  • Subtitulos: Español Latino SRT - Ingles SRT
  • Resolución: 1920x1080
  • Formato: MKV
  • Codec: H.264
  • Encoder: cinemaniahdd
  • Mediainfo: Clic para Mostrar Datos Ver
  • Primate T02E08 AMZN WEB-DL 1080p Latino [CNMNHDD].mkv
    Format                      : Matroska
    Format version              : Version 4
    File size                   : 2.37 GiB
    Duration                    : 33 min 2 s
    Overall bit rate            : 10.3 Mb/s
    Movie name                  : Primate S02E08 - No me toquen ese vals [1080p] - CinemaniaHDD.Net
    Encoded date                : UTC 2024-03-15 00:43:04
    Writing application         : mkvmerge v59.0.0 ('Shining Star') 64-bit
    Writing library             : libebml v1.4.2 + libmatroska v1.6.4

    Video
    ID                          : 1
    Format                      : AVC
    Format/Info                 : Advanced Video Codec
    Format profile              : High@L4
    Format settings             : CABAC / 4 Ref Frames
    Format settings, CABAC      : Yes
    Format settings, Reference  : 4 frames
    Codec ID                    : V_MPEG4/ISO/AVC
    Duration                    : 33 min 2 s
    Bit rate mode               : Constant
    Bit rate                    : 8 990 kb/s
    Nominal bit rate            : 10 000 kb/s
    Width                       : 1 920 pixels
    Height                      : 1 080 pixels
    Display aspect ratio        : 16:9
    Frame rate mode             : Constant
    Frame rate                  : 23.976 (24000/1001) FPS
    Color space                 : YUV
    Chroma subsampling          : 4:2:0
    Bit depth                   : 8 bits
    Scan type                   : Progressive
    Bits/(Pixel*Frame)          : 0.181
    Stream size                 : 2.08 GiB (88%)
    Title                       : CinemaniaHDD
    Default                     : Yes
    Forced                      : No
    Color range                 : Limited
    Color primaries             : BT.709
    Transfer characteristics    : BT.709
    Matrix coefficients         : BT.709

    Audio #1
    ID                          : 2
    Format                      : E-AC-3
    Format/Info                 : Enhanced AC-3
    Commercial name             : Dolby Digital Plus
    Codec ID                    : A_EAC3
    Duration                    : 33 min 2 s
    Bit rate mode               : Constant
    Bit rate                    : 640 kb/s
    Channel(s)                  : 6 channels
    Channel layout              : L R C LFE Ls Rs
    Sampling rate               : 48.0 kHz
    Frame rate                  : 31.250 FPS (1536 SPF)
    Compression mode            : Lossy
    Stream size                 : 151 MiB (6%)
    Title                       : Español Latino (Original) [CinemaniaHDD]
    Language                    : Spanish
    Service kind                : Complete Main
    Default                     : No
    Forced                      : No

    Audio #2
    ID                          : 3
    Format                      : E-AC-3
    Format/Info                 : Enhanced AC-3
    Commercial name             : Dolby Digital Plus
    Codec ID                    : A_EAC3
    Duration                    : 33 min 2 s
    Bit rate mode               : Constant
    Bit rate                    : 640 kb/s
    Channel(s)                  : 6 channels
    Channel layout              : L R C LFE Ls Rs
    Sampling rate               : 48.0 kHz
    Frame rate                  : 31.250 FPS (1536 SPF)
    Compression mode            : Lossy
    Stream size                 : 151 MiB (6%)
    Title                       : Inglés [CinemaniaHDD]
    Language                    : English
    Service kind                : Complete Main
    Default                     : No
    Forced                      : No

    Text #1
    ID                          : 4
    Format                      : UTF-8
    Codec ID                    : S_TEXT/UTF8
    Codec ID/Info               : UTF-8 Plain Text
    Duration                    : 29 min 10 s
    Bit rate                    : 53 b/s
    Count of elements           : 397
    Stream size                 : 11.3 KiB (0%)
    Title                       : Inglés [CinemaniaHDD]
    Language                    : English
    Default                     : No
    Forced                      : No

    Text #2
    ID                          : 5
    Format                      : UTF-8
    Codec ID                    : S_TEXT/UTF8
    Codec ID/Info               : UTF-8 Plain Text
    Duration                    : 30 min 22 s
    Bit rate                    : 74 b/s
    Count of elements           : 535
    Stream size                 : 16.7 KiB (0%)
    Title                       : Español Latino [CinemaniaHDD]
    Language                    : Spanish
    Default                     : No
    Forced                      : No

     

  • Peso: 2.37 GiB Aprox ---- 16 GiB in 8 Chapters.

Sinopsis

En bancarrota, con la vida en cajas y teniendo como único refugio un sofá en la casa de sus amigos Andrés y Joao, William enfrenta su nueva realidad: El otrora famoso actor, busca la estabilidad emocional y económica para lidiar con la adolescencia de sus hijos, el viaje personal de su exesposa y la angustia por una época dorada que no parece regresar.

Ficha técnica

  • Titulo original: Primate
  • Fecha de lanzamiento: 01-04-2022 (CO, US)
  • Género: Comedia, Series

Video trailer de la película

Enlaces de descarga

Rip de Bluray

Descargar Primate (2024) Segunda Temporada AMZN WEB-DL 1080p Latino




Aportes de DPeliculasHDmega la pass es:dpeliculashdmega.org Aportes de CinemaniaHD la pass es:cinemaniahdd.com Aportes recientes:cinemaniahdd.net
Guardado en : Comedia , Series

Películas relacionadas

descargar Primate (2024) Segunda Temporada AMZN WEB-DL 1080p Latino 1080p 1080p gratis, Primate (2024) Segunda Temporada AMZN WEB-DL 1080p Latino 1080p mega 1 link, Primate (2024) Segunda Temporada AMZN WEB-DL 1080p Latino 1080p serie completa, descargar Primate (2024) Segunda Temporada AMZN WEB-DL 1080p Latino 1080p gratis en mega.

Primate (2024) Segunda Temporada AMZN WEB-DL 1080p Latino pelicula full hd, Primate (2024) Segunda Temporada AMZN WEB-DL 1080p Latino mega latino, Primate (2024) Segunda Temporada AMZN WEB-DL 1080p Latino 4k latino, Primate (2024) Segunda Temporada AMZN WEB-DL 1080p Latino pelicula completa, Primate (2024) Segunda Temporada AMZN WEB-DL 1080p Latino descargar gratis, descargar Primate (2024) Segunda Temporada AMZN WEB-DL 1080p Latino pelicula latino, Primate (2024) Segunda Temporada AMZN WEB-DL 1080p Latino 1 link mega, Primate (2024) Segunda Temporada AMZN WEB-DL 1080p Latino 1 link google drive, Primate (2024) Segunda Temporada AMZN WEB-DL 1080p Latino hd 1080p latino.
Comentarios 0