×

¿Problemas para descargar con Mozilla, EDGE? Deshabilita la opción "Abrir vinculos en una pestaña nueva" tal como lo muestra ésta imagen.

Primal (2019) Full HD 1080p Latino

1.881 vistas

Información de Primal (2019) Full HD 1080p Latino

Datos de la película

  • Calidad: Full 1080p
  • Audio: Se especifica abajo de la Sinopsis
  • Subtitulos: Español Latino PGS - Ingles PGS
  • Resolución: 1920x1080p
  • Formato: MKV
  • Codec: H.264
  • Encoder: CinefiloCool
  • Mediainfo: Clic para Mostrar Datos Ver
  • Primal (2019) Full HD 1080p Latino-CMHDD.mkv
    Format                      : Matroska
    Format version              : Version 4
    File size                   : 5.82 GiB
    Duration                    : 1 h 36 min
    Overall bit rate mode       : Variable
    Overall bit rate            : 8 598 kb/s
    Movie name                  : CinemaniaHDD.Net
    Encoded date                : UTC 2020-02-07 06:54:01
    Writing application         : mkvmerge v42.0.0 ('Overtime') 64-bit
    Writing library             : libebml v1.3.10 + libmatroska v1.5.2
    Attachments                 : CINEMANIAHD.png

    Video
    ID                          : 1
    Format                      : AVC
    Format/Info                 : Advanced Video Codec
    Format profile              : High@L4.1
    Format settings             : CABAC / 4 Ref Frames
    Format settings, CABAC      : Yes
    Format settings, ReFrames   : 4 frames
    Codec ID                    : V_MPEG4/ISO/AVC
    Duration                    : 1 h 36 min
    Bit rate                    : 4 386 kb/s
    Width                       : 1 920 pixels
    Height                      : 1 080 pixels
    Display aspect ratio        : 16:9
    Frame rate mode             : Constant
    Frame rate                  : 23.976 (24000/1001) FPS
    Color space                 : YUV
    Chroma subsampling          : 4:2:0
    Bit depth                   : 8 bits
    Scan type                   : Progressive
    Bits/(Pixel*Frame)          : 0.088
    Stream size                 : 2.97 GiB (51%)
    Title                       : Full HD1080p [Bluray]
    Writing library             : x264 core 157 r2935 545de2f
    Encoding settings           : cabac=1 / ref=4 / deblock=1:-2:-2 / analyse=0x3:0x133 / me=tesa / subme=11 / psy=1 / psy_rd=1.00:0.25 / mixed_ref=1 / me_range=24 / chroma_me=1 / trellis=2 / 8x8dct=1 / cqm=0 / deadzone=6,6 / fast_pskip=0 / chroma_qp_offset=-4 / threads=34 / lookahead_threads=8 / sliced_threads=0 / nr=0 / decimate=0 / interlaced=0 / bluray_compat=0 / constrained_intra=0 / bframes=16 / b_pyramid=2 / b_adapt=2 / b_bias=0 / direct=3 / weightb=1 / open_gop=0 / weightp=2 / keyint=240 / keyint_min=24 / scenecut=40 / intra_refresh=0 / rc_lookahead=60 / rc=crf / mbtree=1 / crf=20.0 / qcomp=0.80 / qpmin=0 / qpmax=69 / qpstep=4 / vbv_maxrate=62500 / vbv_bufsize=78125 / crf_max=0.0 / nal_hrd=none / filler=0 / ip_ratio=1.10 / aq=1:0.50
    Default                     : Yes
    Forced                      : Yes
    Color range                 : Limited
    Color primaries             : BT.709
    Transfer characteristics    : BT.709
    Matrix coefficients         : BT.709

    Audio #1
    ID                          : 2
    Format                      : AC-3
    Format/Info                 : Audio Coding 3
    Commercial name             : Dolby Digital
    Codec ID                    : A_AC3
    Duration                    : 1 h 36 min
    Bit rate mode               : Constant
    Bit rate                    : 256 kb/s
    Channel(s)                  : 2 channels
    Channel layout              : L R
    Sampling rate               : 48.0 kHz
    Frame rate                  : 31.250 FPS (1536 SPF)
    Bit depth                   : 16 bits
    Compression mode            : Lossy
    Stream size                 : 177 MiB (3%)
    Title                       : AC3_2.0_DVD_Esp
    Language                    : Spanish
    Service kind                : Complete Main
    Default                     : Yes
    Forced                      : Yes

    Audio #2
    ID                          : 3
    Format                      : MLP FBA
    Format/Info                 : Meridian Lossless Packing FBA
    Commercial name             : Dolby TrueHD
    Codec ID                    : A_TRUEHD
    Duration                    : 1 h 36 min
    Bit rate mode               : Variable
    Bit rate                    : 3 224 kb/s
    Maximum bit rate            : 4 530 kb/s
    Channel(s)                  : 6 channels
    Channel layout              : L R C LFE Ls Rs
    Sampling rate               : 48.0 kHz
    Frame rate                  : 1 200.000 FPS (40 SPF)
    Compression mode            : Lossless
    Stream size                 : 2.18 GiB (37%)
    Title                       : THD_5.1_Bluray_Eng
    Language                    : English
    Default                     : No
    Forced                      : No

    Audio #3
    ID                          : 4
    Format                      : AC-3
    Format/Info                 : Audio Coding 3
    Commercial name             : Dolby Digital
    Codec ID                    : A_AC3
    Duration                    : 1 h 36 min
    Bit rate mode               : Constant
    Bit rate                    : 640 kb/s
    Channel(s)                  : 6 channels
    Channel layout              : L R C LFE Ls Rs
    Sampling rate               : 48.0 kHz
    Frame rate                  : 31.250 FPS (1536 SPF)
    Bit depth                   : 16 bits
    Compression mode            : Lossy
    Stream size                 : 443 MiB (7%)
    Title                       : AC3_5.1_Bluray_Eng
    Language                    : English
    Service kind                : Complete Main
    Default                     : No
    Forced                      : No

    Text #1
    ID                          : 5
    Format                      : PGS
    Muxing mode                 : zlib
    Codec ID                    : S_HDMV/PGS
    Codec ID/Info               : Picture based subtitle format used on BDs/HD-DVDs
    Duration                    : 1 h 31 min
    Bit rate                    : 26.5 kb/s
    Count of elements           : 1976
    Stream size                 : 17.3 MiB (0%)
    Title                       : Sub_Esp [PGS]
    Language                    : Spanish
    Default                     : No
    Forced                      : No

    Text #2
    ID                          : 6
    Format                      : PGS
    Muxing mode                 : zlib
    Codec ID                    : S_HDMV/PGS
    Codec ID/Info               : Picture based subtitle format used on BDs/HD-DVDs
    Duration                    : 1 h 33 min
    Bit rate                    : 28.2 kb/s
    Count of elements           : 1992
    Stream size                 : 19.0 MiB (0%)
    Title                       : Sub_Eng [PGS]
    Language                    : English
    Default                     : No
    Forced                      : No

    Text #3
    ID                          : 7
    Format                      : UTF-8
    Codec ID                    : S_TEXT/UTF8
    Codec ID/Info               : UTF-8 Plain Text
    Duration                    : 1 h 27 min
    Bit rate                    : 0 b/s
    Count of elements           : 12
    Stream size                 : 291 Bytes (0%)
    Title                       : Sub_Forzados
    Language                    : Spanish
    Default                     : Yes
    Forced                      : Yes

    Text #4
    ID                          : 8
    Format                      : UTF-8
    Codec ID                    : S_TEXT/UTF8
    Codec ID/Info               : UTF-8 Plain Text
    Duration                    : 1 h 31 min
    Bit rate                    : 45 b/s
    Count of elements           : 905
    Stream size                 : 30.6 KiB (0%)
    Title                       : Sub_Esp
    Language                    : Spanish
    Default                     : No
    Forced                      : No

    Menu
    00:00:00.000                : en:Chapter 01
    00:10:15.114                : en:Chapter 02
    00:18:51.464                : en:Chapter 03
    00:24:53.492                : en:Chapter 04
    00:27:28.313                : en:Chapter 05
    00:33:18.830                : en:Chapter 06
    00:42:31.048                : en:Chapter 07
    00:50:53.550                : en:Chapter 08
    01:00:48.186                : en:Chapter 09
    01:06:42.498                : en:Chapter 10
    01:15:28.190                : en:Chapter 11
    01:32:29.711                : en:Chapter 12

  • Peso: 5.82 GiB

Sinopsis

Descargar Primal (2019) Full HD 1080p Latino. Un cazador que se dedica a capturar animales para luego venderlos a distintos zoológicos compra un pasaje para embarcarse en un crucero repleto de animales exóticos con los que piensa hacerse de oro, entre los que se incluye un jaguar y otros animales del Amazonas. Sin embargo, desconoce que en el mismo barco se está extraditando a un asesino en serie que, tras escapar del control de sus captores, liberta a los animales y con ellos el caos total.

Audio Español Latino AC3 2.0 DVD – Ingles TrueHD + AC3 5.1 Bluray

Ficha técnica

Video trailer de la película

Enlaces de descarga

Rip de Bluray

Descargar Primal (2019) Full HD 1080p Latino




Aportes de DPeliculasHDmega la pass es:dpeliculashdmega.org Aportes de CinemaniaHD la pass es:cinemaniahdd.com

Películas relacionadas

  • El Cuartel Secreto (2022) WEB-DL 4K UHD HDR Latino

    El Cuartel Secreto (2022) WEB-DL 4K UHD HDR Latino

    2022
    El Cuartel Secreto (2022) WEB-DL 4K UHD HDR Latino

    1h 44m 2022

    Descargar El Cuartel Secreto (2022) WEB-DL 4K UHD HDR Latino. Mientras pasan el rato después de la escuela,...

    Director: Henry Joost

    Género: 4K HDR

    Actores: Zeb Slone

  • El Cuartel Secreto (2022) WEB-DL 1080p Latino

    El Cuartel Secreto (2022) WEB-DL 1080p Latino

    2022
    El Cuartel Secreto (2022) WEB-DL 1080p Latino

    1h 44m 2022

    Descargar El Cuartel Secreto (2022) WEB-DL 1080p Latino. Mientras pasan el rato después de la escuela,...

    Director: Henry Joost

    Género: Acción

    Actores: Zeb Slone

  • Men in Black (1997) REMUX 4K HDR Latino – CMHDD

    Men in Black (1997) REMUX 4K HDR Latino – CMHDD

    1997
    Men in Black (1997) REMUX 4K HDR Latino – CMHDD

    1h 34m 1997

    Durante muchos años los extraterrestres han vivido en la Tierra, mezclados con los humanos, sin que...

    Director: Tyrone S. Walker

    Género: Acción

    Actores: Willie C. Carpenter

  • Tren Bala (2022) WEB-DL 4K UHD HDR Latino

    Tren Bala (2022) WEB-DL 4K UHD HDR Latino

    2022
    Tren Bala (2022) WEB-DL 4K UHD HDR Latino

    2h 7m 2022

    Descargar Tren Bala (2022) WEB-DL 4K UHD HDR Latino. El desafortunado asesino "Catarina" está decidido...

    Director: Paul Barry

    Género: 4K HDR

    Actores: Zooey Miyoshi

descargar Primal (2019) Full HD 1080p Latino Full 1080p 1080p gratis, Primal (2019) Full HD 1080p Latino Full 1080p mega 1 link, Primal (2019) Full HD 1080p Latino Full 1080p pelicula completa, descargar Primal (2019) Full HD 1080p Latino Full 1080p gratis en mega.

Primal (2019) Full HD 1080p Latino pelicula full hd, Primal (2019) Full HD 1080p Latino mega latino, Primal (2019) Full HD 1080p Latino 4k latino, Primal (2019) Full HD 1080p Latino pelicula completa, Primal (2019) Full HD 1080p Latino descargar gratis, descargar Primal (2019) Full HD 1080p Latino pelicula latino, Primal (2019) Full HD 1080p Latino 1 link mega, Primal (2019) Full HD 1080p Latino 1 link google drive, Primal (2019) Full HD 1080p Latino hd 1080p latino.
Comentarios 0