×

¿Problemas para descargar con Mozilla, EDGE? Deshabilita la opción "Abrir vinculos en una pestaña nueva" tal como lo muestra ésta imagen.

Pride and Prejudice (1995) Temporada 1 BBC WEB-DL 1080p Latino

300 vistas

Información de Pride and Prejudice (1995) Temporada 1 BBC WEB-DL 1080p Latino

Datos de la película

  • Calidad: WEBDL
  • Audio: Español Latino AC3 2.0 - Ingles AC3 2.0
  • Subtitulos: Español Latino SRT - Ingles SRT
  • Resolución: 1920x1080
  • Formato: MKV
  • Codec: H.264
  • Encoder: cinemaniahdd
  • Mediainfo: Clic para Mostrar Datos Ver
  • Pride and Prejudice T01E01 BBC WEB-DL 1080p Latino [CNMNHDD].mkv
    Format                      : Matroska
    Format version              : Version 4
    File size                   : 3.46 GiB
    Duration                    : 55 min 35 s
    Overall bit rate mode       : Variable
    Overall bit rate            : 8 924 kb/s
    Movie name                  : Pride and Prejudice T01E01 - CinemaniaHDD.Net
    Encoded date                : UTC 2021-03-02 21:51:47
    Writing application         : mkvmerge v51.0.0 ('I Wish') 64-bit
    Writing library             : libebml v1.4.0 + libmatroska v1.6.2

    Video
    ID                          : 1
    Format                      : AVC
    Format/Info                 : Advanced Video Codec
    Format profile              : High@L4
    Format settings             : CABAC / 4 Ref Frames
    Format settings, CABAC      : Yes
    Format settings, Reference  : 4 frames
    Codec ID                    : V_MPEG4/ISO/AVC
    Duration                    : 55 min 34 s
    Bit rate mode               : Variable
    Bit rate                    : 8 153 kb/s
    Width                       : 1 920 pixels
    Height                      : 1 080 pixels
    Display aspect ratio        : 16:9
    Frame rate mode             : Constant
    Frame rate                  : 23.976 (24000/1001) FPS
    Color space                 : YUV
    Chroma subsampling          : 4:2:0
    Bit depth                   : 8 bits
    Scan type                   : Progressive
    Bits/(Pixel*Frame)          : 0.164
    Stream size                 : 3.17 GiB (91%)
    Title                       : CinemaniaHDD
    Language                    : English
    Default                     : Yes
    Forced                      : No
    Color range                 : Limited
    Color primaries             : BT.709
    Transfer characteristics    : BT.709
    Matrix coefficients         : BT.709

    Audio #1
    ID                          : 2
    Format                      : AC-3
    Format/Info                 : Audio Coding 3
    Commercial name             : Dolby Digital
    Codec ID                    : A_AC3
    Duration                    : 55 min 35 s
    Bit rate mode               : Constant
    Bit rate                    : 256 kb/s
    Channel(s)                  : 2 channels
    Channel layout              : L R
    Sampling rate               : 48.0 kHz
    Frame rate                  : 31.250 FPS (1536 SPF)
    Compression mode            : Lossy
    Stream size                 : 153 MiB (4%)
    Title                       : Español latino [CinemaniaHDD]
    Language                    : Spanish
    Service kind                : Complete Main
    Default                     : Yes
    Forced                      : No

    Audio #2
    ID                          : 3
    Format                      : AC-3
    Format/Info                 : Audio Coding 3
    Commercial name             : Dolby Digital
    Codec ID                    : A_AC3
    Duration                    : 55 min 35 s
    Bit rate mode               : Constant
    Bit rate                    : 256 kb/s
    Channel(s)                  : 2 channels
    Channel layout              : L R
    Sampling rate               : 48.0 kHz
    Frame rate                  : 31.250 FPS (1536 SPF)
    Compression mode            : Lossy
    Stream size                 : 153 MiB (4%)
    Title                       : Inglés [CinemaniaHDD]
    Language                    : English
    Service kind                : Complete Main
    Default                     : No
    Forced                      : No

    Text #1
    ID                          : 4
    Format                      : UTF-8
    Codec ID                    : S_TEXT/UTF8
    Codec ID/Info               : UTF-8 Plain Text
    Duration                    : 53 min 18 s
    Bit rate                    : 70 b/s
    Count of elements           : 711
    Stream size                 : 27.6 KiB (0%)
    Title                       : Español latino [CinemaniaHDD]
    Language                    : Spanish
    Default                     : No
    Forced                      : No

    Text #2
    ID                          : 5
    Format                      : UTF-8
    Codec ID                    : S_TEXT/UTF8
    Codec ID/Info               : UTF-8 Plain Text
    Duration                    : 53 min 17 s
    Bit rate                    : 69 b/s
    Count of elements           : 613
    Stream size                 : 27.1 KiB (0%)
    Title                       : Inglés [CinemaniaHDD]
    Language                    : English
    Default                     : No
    Forced                      : No

     

  • Peso: 3.46 GiB Aprox ---- 20.2 GiB in 6 Chapters.

Sinopsis

Miniserie de TV de 6 episodios. Adaptación en formato miniserie de la famosa novela de Jane Austen ambientada a comienzos del siglo XIX, en la que los prejuicios y las diferencias sociales constituyen un obstáculo casi insalvable en las relaciones amorosas.

Ficha técnica

  • Titulo original: Pride and Prejudice
  • Fecha de lanzamiento: 24-09-1995 (GB)
  • Género: Drama, Series

Video trailer de la película

Enlaces de descarga

Rip de Bluray

Descargar Pride and Prejudice (1995) Temporada 1 BBC WEB-DL 1080p Latino




Aportes de DPeliculasHDmega la pass es:dpeliculashdmega.org Aportes de CinemaniaHD la pass es:cinemaniahdd.com
Guardado en : Drama , Series

Películas relacionadas

  • Paradise Highway (2022) HD 1080p Latino

    Paradise Highway (2022) HD 1080p Latino

    2022
    Paradise Highway (2022) HD 1080p Latino

    1h 55m 2022

    Descargar Paradise Highway (2022) HD 1080p Latino. Un camionero se ha visto obligado a pasar de contrabando...

    Director: Anna Gutto

    Género: Crimen

    Actores: Xavier Scott Evans

  • Paradise Highway (2022) PLACEBO Full HD 1080p Latino

    Paradise Highway (2022) PLACEBO Full HD 1080p Latino

    2022
    Paradise Highway (2022) PLACEBO Full HD 1080p Latino

    1h 55m 2022

    Descargar Paradise Highway (2022) PLACEBO Full HD 1080p Latino. Un camionero se ha visto obligado a pasar...

    Director: Anna Gutto

    Género: Crimen

    Actores: Xavier Scott Evans

  • Paradise Highway (2022) REMUX 1080p Latino

    Paradise Highway (2022) REMUX 1080p Latino

    2022
    Paradise Highway (2022) REMUX 1080p Latino

    1h 55m 2022

    Descargar Paradise Highway (2022) REMUX 1080p Latino. Un camionero se ha visto obligado a pasar de contrabando...

    Director: Anna Gutto

    Género: Crimen

    Actores: Xavier Scott Evans

descargar Pride and Prejudice (1995) Temporada 1 BBC WEB-DL 1080p Latino WEBDL 1080p gratis, Pride and Prejudice (1995) Temporada 1 BBC WEB-DL 1080p Latino WEBDL mega 1 link, Pride and Prejudice (1995) Temporada 1 BBC WEB-DL 1080p Latino WEBDL serie completa, descargar Pride and Prejudice (1995) Temporada 1 BBC WEB-DL 1080p Latino WEBDL gratis en mega.

Pride and Prejudice (1995) Temporada 1 BBC WEB-DL 1080p Latino pelicula full hd, Pride and Prejudice (1995) Temporada 1 BBC WEB-DL 1080p Latino mega latino, Pride and Prejudice (1995) Temporada 1 BBC WEB-DL 1080p Latino 4k latino, Pride and Prejudice (1995) Temporada 1 BBC WEB-DL 1080p Latino pelicula completa, Pride and Prejudice (1995) Temporada 1 BBC WEB-DL 1080p Latino descargar gratis, descargar Pride and Prejudice (1995) Temporada 1 BBC WEB-DL 1080p Latino pelicula latino, Pride and Prejudice (1995) Temporada 1 BBC WEB-DL 1080p Latino 1 link mega, Pride and Prejudice (1995) Temporada 1 BBC WEB-DL 1080p Latino 1 link google drive, Pride and Prejudice (1995) Temporada 1 BBC WEB-DL 1080p Latino hd 1080p latino.
Comentarios 0