×

¿Problemas para descargar con Mozilla, EDGE? Deshabilita la opción "Abrir vinculos en una pestaña nueva" tal como lo muestra ésta imagen.

Pretty Woman (1990) REMUX 1080p Latino – CMHDD

72 vistas

Información de Pretty Woman (1990) REMUX 1080p Latino – CMHDD

Datos de la película

  • Calidad: Full 1080p
  • Audio: Español Latino AC3 2.0 BLURAY - Ingles AC3 5.1 BLURAY
  • Subtitulos: Español Latino PGS
  • Resolución: 19201080p
  • Formato: MKV
  • Codec: H.264
  • Encoder: Dracarys
  • Mediainfo: Clic para Mostrar Datos Ver
  • Format                      : Matroska
    Format version              : Version 4
    File size                   : 30.7 GiB
    Duration                    : 1 h 59 min
    Overall bit rate mode       : Variable
    Overall bit rate            : 36.8 Mb/s
    Movie name                  : Pretty Woman (1990) REMUX 1080p Latino - CMHDD
    Encoded date                : UTC 2023-12-08 21:12:10
    Writing application         : mkvmerge v47.0.0 ('Black Flag') 64-bit
    Writing library             : libebml v1.3.10 + libmatroska v1.5.2

    Video
    ID                          : 1
    ID in the original source m : 4113 (0x1011)
    Format                      : AVC
    Format/Info                 : Advanced Video Codec
    Format profile              : High@L4.1
    Format settings             : CABAC / 4 Ref Frames
    Format settings, CABAC      : Yes
    Format settings, Reference  : 4 frames
    Codec ID                    : V_MPEG4/ISO/AVC
    Duration                    : 1 h 59 min
    Bit rate mode               : Variable
    Bit rate                    : 29.0 Mb/s
    Maximum bit rate            : 35.0 Mb/s
    Width                       : 1 920 pixels
    Height                      : 1 080 pixels
    Display aspect ratio        : 16:9
    Frame rate mode             : Constant
    Frame rate                  : 23.976 (24000/1001) FPS
    Color space                 : YUV
    Chroma subsampling          : 4:2:0
    Bit depth                   : 8 bits
    Scan type                   : Progressive
    Bits/(Pixel*Frame)          : 0.583
    Stream size                 : 24.2 GiB (79%)
    Language                    : English
    Default                     : No
    Forced                      : No
    Color range                 : Limited
    Color primaries             : BT.709
    Transfer characteristics    : BT.709
    Matrix coefficients         : BT.709
    Original source medium      : Blu-ray

    Audio #1
    ID                          : 2
    ID in the original source m : 4352 (0x1100)
    Format                      : PCM
    Format settings             : Little / Signed
    Codec ID                    : A_MS/ACM / 00000001-0000-0010-8000-00AA00389B71
    Duration                    : 1 h 59 min
    Bit rate mode               : Constant
    Bit rate                    : 6 912 kb/s / 6 912 kb/s
    Channel(s)                  : 6 channels
    Channel layout              : L R C LFE Ls Rs
    Sampling rate               : 48.0 kHz
    Frame rate                  : 30.000 FPS (1600 SPF)
    Bit depth                   : 24 bits
    Stream size                 : 5.78 GiB (19%)
    Language                    : English
    Default                     : No
    Forced                      : No
    Original source medium      : Blu-ray

    Audio #2
    ID                          : 3
    ID in the original source m : 4353 (0x1101)
    Format                      : AC-3
    Format/Info                 : Audio Coding 3
    Commercial name             : Dolby Digital
    Codec ID                    : A_AC3
    Duration                    : 1 h 59 min
    Bit rate mode               : Constant
    Bit rate                    : 640 kb/s
    Channel(s)                  : 6 channels
    Channel layout              : L R C LFE Ls Rs
    Sampling rate               : 48.0 kHz
    Frame rate                  : 31.250 FPS (1536 SPF)
    Compression mode            : Lossy
    Stream size                 : 548 MiB (2%)
    Language                    : English
    Service kind                : Complete Main
    Default                     : No
    Forced                      : No
    Original source medium      : Blu-ray

    Audio #3
    ID                          : 4
    ID in the original source m : 4355 (0x1103)
    Format                      : AC-3
    Format/Info                 : Audio Coding 3
    Commercial name             : Dolby Digital
    Format settings             : Dolby Surround
    Codec ID                    : A_AC3
    Duration                    : 1 h 59 min
    Bit rate mode               : Constant
    Bit rate                    : 256 kb/s
    Channel(s)                  : 2 channels
    Channel layout              : L R
    Sampling rate               : 48.0 kHz
    Frame rate                  : 31.250 FPS (1536 SPF)
    Compression mode            : Lossy
    Stream size                 : 219 MiB (1%)
    Language                    : Spanish
    Service kind                : Complete Main
    Default                     : Yes
    Forced                      : No
    Original source medium      : Blu-ray

    Text #1
    ID                          : 5
    ID in the original source m : 4610 (0x1202)
    Format                      : PGS
    Muxing mode                 : zlib
    Codec ID                    : S_HDMV/PGS
    Codec ID/Info               : Picture based subtitle format used on BDs/HD-DVDs
    Duration                    : 1 h 56 min
    Bit rate                    : 39.3 kb/s
    Frame rate                  : 0.453 FPS
    Count of elements           : 3156
    Stream size                 : 32.7 MiB (0%)
    Language                    : Spanish
    Default                     : No
    Forced                      : No
    Original source medium      : Blu-ray

    Text #2
    ID                          : 6
    ID in the original source m : 4617 (0x1209)
    Format                      : PGS
    Muxing mode                 : zlib
    Codec ID                    : S_HDMV/PGS
    Codec ID/Info               : Picture based subtitle format used on BDs/HD-DVDs
    Duration                    : 32 min 25 s
    Bit rate                    : 127 b/s
    Frame rate                  : 0.002 FPS
    Count of elements           : 4
    Stream size                 : 30.3 KiB (0%)
    Language                    : Spanish
    Default                     : No
    Forced                      : No
    Original source medium      : Blu-ray

    Menu
    00:00:00.000                : en:Chapter 01
    00:09:26.399                : en:Chapter 02
    00:13:39.235                : en:Chapter 03
    00:18:51.130                : en:Chapter 04
    00:34:00.038                : en:Chapter 05
    00:41:51.967                : en:Chapter 06
    00:44:46.684                : en:Chapter 07
    00:49:52.030                : en:Chapter 08
    00:54:50.078                : en:Chapter 09
    01:00:35.757                : en:Chapter 10
    01:08:36.487                : en:Chapter 11
    01:17:20.636                : en:Chapter 12
    01:21:09.322                : en:Chapter 13
    01:29:10.178                : en:Chapter 14
    01:35:29.140                : en:Chapter 15
    01:42:23.637                : en:Chapter 16
    01:48:39.596                : en:Chapter 17
    01:52:34.456                : en:Chapter 18
    01:56:27.188                : en:Chapter 19

     

  • Peso: 30.7 GiB

Sinopsis

Un acaudalado y frío hombre de negocios conoce en Hollywood Boulevard a una joven y atractiva prostituta a la que alquila durante una semana para que sea su acompañante en sus cenas con los clientes. Para ello la chica se verá sometida a todo un cambio de look tras el que nadie podrá ver, a simple vista, que es una chica de la calle.

Ficha técnica

Video trailer de la película

Enlaces de descarga

Rip de Bluray

Descargar Pretty Woman (1990) REMUX 1080p Latino – CMHDD




Aportes de DPeliculasHDmega la pass es:dpeliculashdmega.org Aportes de CinemaniaHD la pass es:cinemaniahdd.com Aportes recientes:cinemaniahdd.net
Guardado en : Comedia , Romance

Películas relacionadas

  • Who Invited Charlie? (2023) AMZN WEB-DL 1080p Latino

    Who Invited Charlie? (2023) AMZN WEB-DL 1080p Latino

    2023
    Who Invited Charlie? (2023) AMZN WEB-DL 1080p Latino

    1h 41m 2023

    Phil y su familia buscan refugio en los Hamptons para esquivar la pandemia, pero su paz se acaba con...

    Director: Xavier Manrique

    Género: Comedia

    Actores: Xosha Roquemore

  • Players (2024) NF WEB-DL 1080p Latino

    Players (2024) NF WEB-DL 1080p Latino

    2024
    Players (2024) NF WEB-DL 1080p Latino

    1h 45m 2024

    Descargar Players (2024) NF WEB-DL 1080p Latino. Una periodista deportiva neoyorquina con un ingenioso...

    Director: Trish Sie

    Género: Comedia

    Actores: Veraalba Santa

  • ¡Patos! (2023) HD 1080p Latino

    ¡Patos! (2023) HD 1080p Latino

    2023
    ¡Patos! (2023) HD 1080p Latino

    1h 23m 2023

    Descargar ¡Patos! (2023) HD 1080p Latino. Después de que una familia de patos migratorios aterriza...

    Director: Guy-Laurent Homsy

    Género: Acción

    Actores: Zeno Robinson

descargar Pretty Woman (1990) REMUX 1080p Latino – CMHDD Full 1080p 1080p gratis, Pretty Woman (1990) REMUX 1080p Latino – CMHDD Full 1080p mega 1 link, Pretty Woman (1990) REMUX 1080p Latino – CMHDD Full 1080p pelicula completa, descargar Pretty Woman (1990) REMUX 1080p Latino – CMHDD Full 1080p gratis en mega.

Pretty Woman (1990) REMUX 1080p Latino – CMHDD pelicula full hd, Pretty Woman (1990) REMUX 1080p Latino – CMHDD mega latino, Pretty Woman (1990) REMUX 1080p Latino – CMHDD 4k latino, Pretty Woman (1990) REMUX 1080p Latino – CMHDD pelicula completa, Pretty Woman (1990) REMUX 1080p Latino – CMHDD descargar gratis, descargar Pretty Woman (1990) REMUX 1080p Latino – CMHDD pelicula latino, Pretty Woman (1990) REMUX 1080p Latino – CMHDD 1 link mega, Pretty Woman (1990) REMUX 1080p Latino – CMHDD 1 link google drive, Pretty Woman (1990) REMUX 1080p Latino – CMHDD hd 1080p latino.
Comentarios 0