×

¿Problemas para descargar con Mozilla, EDGE? Deshabilita la opción "Abrir vinculos en una pestaña nueva" tal como lo muestra ésta imagen.

Pretty Little Liars: Original Sin (2024) Segunda Temporada MAX WEB-DL 1080p Latino

145 vistas

Información de Pretty Little Liars: Original Sin (2024) Segunda Temporada MAX WEB-DL 1080p Latino

Datos de la película

  • Calidad: 1080p
  • Audio: Español Latino AC3 5.1 WEB-DL - Ingles AC3 5.1 WEB-DL
  • Subtitulos: Español Latino SRT- FORZADOS SRT
  • Resolución: 1920x1080
  • Formato: MKV
  • Codec: H.264
  • Encoder: cinemaniahdd
  • Mediainfo: Clic para Mostrar Datos Ver
  • Pretty Little Liars. Original Sin T02E01 MAX WEB-DL 1080p Latino [CNMNHDD].mkv
    Format                      : Matroska
    Format version              : Version 4
    File size                   : 3.21 GiB
    Duration                    : 49 min 55 s
    Overall bit rate            : 9 197 kb/s
    Movie name                  : Pretty Little Liars. Original Sin S02E01 - Capítulo once. SpookySpaguetti.com [1080p] - CinemaniaHDD.Net
    Encoded date                : UTC 2024-05-09 23:10:58
    Writing application         : mkvmerge v56.1.0 ('My Friend') 64-bit
    Writing library             : libebml v1.4.2 + libmatroska v1.6.4

    Video
    ID                          : 1
    Format                      : AVC
    Format/Info                 : Advanced Video Codec
    Format profile              : High@L4
    Format settings             : CABAC / 4 Ref Frames
    Format settings, CABAC      : Yes
    Format settings, Reference  : 4 frames
    Codec ID                    : V_MPEG4/ISO/AVC
    Duration                    : 49 min 55 s
    Bit rate mode               : Constant
    Bit rate                    : 7 274 kb/s
    Nominal bit rate            : 10 000 kb/s
    Width                       : 1 920 pixels
    Height                      : 1 080 pixels
    Display aspect ratio        : 16:9
    Frame rate mode             : Constant
    Frame rate                  : 23.976 (24000/1001) FPS
    Color space                 : YUV
    Chroma subsampling          : 4:2:0
    Bit depth                   : 8 bits
    Scan type                   : Progressive
    Bits/(Pixel*Frame)          : 0.146
    Stream size                 : 2.54 GiB (79%)
    Title                       : CinemaniaHDD.Net
    Default                     : Yes
    Forced                      : No
    Color range                 : Limited
    Color primaries             : BT.709
    Transfer characteristics    : BT.709
    Matrix coefficients         : BT.709

    Audio #1
    ID                          : 2
    Format                      : AC-3
    Format/Info                 : Audio Coding 3
    Commercial name             : Dolby Digital
    Codec ID                    : A_AC3
    Duration                    : 49 min 55 s
    Bit rate mode               : Constant
    Bit rate                    : 640 kb/s
    Channel(s)                  : 6 channels
    Channel layout              : L R C LFE Ls Rs
    Sampling rate               : 48.0 kHz
    Frame rate                  : 31.250 FPS (1536 SPF)
    Compression mode            : Lossy
    Stream size                 : 229 MiB (7%)
    Title                       : Español Latino (AC3) [CinemaniaHDD]
    Language                    : Spanish
    Service kind                : Complete Main
    Default                     : Yes
    Forced                      : No

    Audio #2
    ID                          : 3
    Format                      : E-AC-3
    Format/Info                 : Enhanced AC-3
    Commercial name             : Dolby Digital Plus
    Codec ID                    : A_EAC3
    Duration                    : 49 min 55 s
    Bit rate mode               : Constant
    Bit rate                    : 640 kb/s
    Channel(s)                  : 6 channels
    Channel layout              : L R C LFE Ls Rs
    Sampling rate               : 48.0 kHz
    Frame rate                  : 31.250 FPS (1536 SPF)
    Compression mode            : Lossy
    Stream size                 : 229 MiB (7%)
    Title                       : Español Latino (E-AC3) [CinemaniaHDD]
    Language                    : Spanish
    Service kind                : Complete Main
    Default                     : No
    Forced                      : No

    Audio #3
    ID                          : 4
    Format                      : E-AC-3
    Format/Info                 : Enhanced AC-3
    Commercial name             : Dolby Digital Plus
    Codec ID                    : A_EAC3
    Duration                    : 49 min 55 s
    Bit rate mode               : Constant
    Bit rate                    : 640 kb/s
    Channel(s)                  : 6 channels
    Channel layout              : L R C LFE Ls Rs
    Sampling rate               : 48.0 kHz
    Frame rate                  : 31.250 FPS (1536 SPF)
    Compression mode            : Lossy
    Stream size                 : 229 MiB (7%)
    Title                       : Inglés (Original) [CinemaniaHDD]
    Language                    : English
    Service kind                : Complete Main
    Default                     : No
    Forced                      : No

    Text #1
    ID                          : 5
    Format                      : UTF-8
    Codec ID                    : S_TEXT/UTF8
    Codec ID/Info               : UTF-8 Plain Text
    Duration                    : 2 s 85 ms
    Bit rate                    : 134 b/s
    Count of elements           : 1
    Stream size                 : 35.0 Bytes (0%)
    Title                       : Forzados [CinemaniaHDD]
    Language                    : Spanish
    Default                     : Yes
    Forced                      : Yes

    Text #2
    ID                          : 6
    Format                      : UTF-8
    Codec ID                    : S_TEXT/UTF8
    Codec ID/Info               : UTF-8 Plain Text
    Duration                    : 48 min 42 s
    Bit rate                    : 68 b/s
    Count of elements           : 751
    Stream size                 : 24.5 KiB (0%)
    Title                       : Español Latino [CinemaniaHDD]
    Language                    : Spanish
    Default                     : No
    Forced                      : No

    Text #3
    ID                          : 7
    Format                      : UTF-8
    Codec ID                    : S_TEXT/UTF8
    Codec ID/Info               : UTF-8 Plain Text
    Duration                    : 49 min 29 s
    Bit rate                    : 84 b/s
    Count of elements           : 861
    Stream size                 : 30.5 KiB (0%)
    Title                       : Inglés [CinemaniaHDD]
    Language                    : English
    Default                     : No
    Forced                      : No

     

  • Peso: 3.21 GiB c/u Aprox ---- 28 GiB in 8 Chapters.

Sinopsis

En este atrapante drama sobre el paso a la adultez ambientado en el universo de Lindas mentirosas, un nuevo grupo de adolescentes dispares se encuentra atormentado por una misteriosa persona que se hace llamar “A”.
 

Ficha técnica

Video trailer de la película

Enlaces de descarga

Rip de Bluray

Descargar Pretty Little Liars: Original Sin (2024) Segunda Temporada MAX WEB-DL 1080p Latino




Aportes de DPeliculasHDmega la pass es:dpeliculashdmega.org Aportes de CinemaniaHD la pass es:cinemaniahdd.com Aportes recientes:cinemaniahdd.net
Guardado en : Drama , Misterio , Series

Películas relacionadas

descargar Pretty Little Liars: Original Sin (2024) Segunda Temporada MAX WEB-DL 1080p Latino 1080p 1080p gratis, Pretty Little Liars: Original Sin (2024) Segunda Temporada MAX WEB-DL 1080p Latino 1080p mega 1 link, Pretty Little Liars: Original Sin (2024) Segunda Temporada MAX WEB-DL 1080p Latino 1080p serie completa, descargar Pretty Little Liars: Original Sin (2024) Segunda Temporada MAX WEB-DL 1080p Latino 1080p gratis en mega.

Pretty Little Liars: Original Sin (2024) Segunda Temporada MAX WEB-DL 1080p Latino pelicula full hd, Pretty Little Liars: Original Sin (2024) Segunda Temporada MAX WEB-DL 1080p Latino mega latino, Pretty Little Liars: Original Sin (2024) Segunda Temporada MAX WEB-DL 1080p Latino 4k latino, Pretty Little Liars: Original Sin (2024) Segunda Temporada MAX WEB-DL 1080p Latino pelicula completa, Pretty Little Liars: Original Sin (2024) Segunda Temporada MAX WEB-DL 1080p Latino descargar gratis, descargar Pretty Little Liars: Original Sin (2024) Segunda Temporada MAX WEB-DL 1080p Latino pelicula latino, Pretty Little Liars: Original Sin (2024) Segunda Temporada MAX WEB-DL 1080p Latino 1 link mega, Pretty Little Liars: Original Sin (2024) Segunda Temporada MAX WEB-DL 1080p Latino 1 link google drive, Pretty Little Liars: Original Sin (2024) Segunda Temporada MAX WEB-DL 1080p Latino hd 1080p latino.
Comentarios 0