×

¿Problemas para descargar con Mozilla, EDGE? Deshabilita la opción "Abrir vinculos en una pestaña nueva" tal como lo muestra ésta imagen.

Presidente bajo fuego (2019) AMZN WEB-DL 1080p Latino

2.735 vistas

Información de Presidente bajo fuego (2019) AMZN WEB-DL 1080p Latino

Datos de la película

  • Calidad: WEBDL
  • Audio: Se especifica abajo de la Sinopsis
  • Subtitulos: Español Latino SRT- FORZADOS SRT
  • Resolución: 1920x1080
  • Formato: MKV
  • Codec: H.264
  • Encoder: cinemaniahdd
  • Mediainfo: Clic para Mostrar Datos Ver
  • Presidente bajo fuego (2019) AMZN WEB-DL 1080p Latino.mkv
    Format                      : Matroska
    Format version              : Version 4
    File size                   : 8.43 GiB
    Duration                    : 2 h 1 min
    Overall bit rate            : 9 977 kb/s
    Movie name                  : Presidente bajo fuego (2019) - CinemaniaHDD.Net
    Encoded date                : UTC 2019-11-13 23:03:42
    Writing application         : mkvmerge v38.0.0 ('The Silent Type') 64-bit
    Writing library             : libebml v1.3.9 + libmatroska v1.5.2

    Video
    ID                          : 1
    Format                      : AVC
    Format/Info                 : Advanced Video Codec
    Format profile              : High@L4
    Format settings             : CABAC / 4 Ref Frames
    Format settings, CABAC      : Yes
    Format settings, ReFrames   : 4 frames
    Codec ID                    : V_MPEG4/ISO/AVC
    Duration                    : 2 h 1 min
    Bit rate mode               : Constant
    Bit rate                    : 8 886 kb/s
    Nominal bit rate            : 10 000 kb/s
    Width                       : 1 920 pixels
    Height                      : 800 pixels
    Display aspect ratio        : 2.40:1
    Frame rate mode             : Constant
    Frame rate                  : 23.976 (24000/1001) FPS
    Color space                 : YUV
    Chroma subsampling          : 4:2:0
    Bit depth                   : 8 bits
    Scan type                   : Progressive
    Bits/(Pixel*Frame)          : 0.241
    Stream size                 : 7.51 GiB (89%)
    Title                       : CinemaniaHDD
    Default                     : Yes
    Forced                      : No
    Color range                 : Limited
    Color primaries             : BT.709
    Transfer characteristics    : BT.709
    Matrix coefficients         : BT.709

    Audio #1
    ID                          : 2
    Format                      : AC-3
    Format/Info                 : Audio Coding 3
    Commercial name             : Dolby Digital
    Codec ID                    : A_AC3
    Duration                    : 2 h 1 min
    Bit rate mode               : Constant
    Bit rate                    : 448 kb/s
    Channel(s)                  : 6 channels
    Channel layout              : L R C LFE Ls Rs
    Sampling rate               : 48.0 kHz
    Frame rate                  : 31.250 FPS (1536 SPF)
    Bit depth                   : 16 bits
    Compression mode            : Lossy
    Stream size                 : 388 MiB (4%)
    Title                       : Español latino [CinemaniaHDD]
    Language                    : Spanish
    Service kind                : Complete Main
    Default                     : No
    Forced                      : No

    Audio #2
    ID                          : 3
    Format                      : E-AC-3
    Format/Info                 : Enhanced AC-3
    Commercial name             : Dolby Digital Plus
    Codec ID                    : A_EAC3
    Duration                    : 2 h 1 min
    Bit rate mode               : Constant
    Bit rate                    : 640 kb/s
    Channel(s)                  : 6 channels
    Channel layout              : L R C LFE Ls Rs
    Sampling rate               : 48.0 kHz
    Frame rate                  : 31.250 FPS (1536 SPF)
    Compression mode            : Lossy
    Stream size                 : 554 MiB (6%)
    Title                       : Inglés [CinemaniaHDD]
    Language                    : English
    Service kind                : Complete Main
    Default                     : No
    Forced                      : No

    Text #1
    ID                          : 4
    Format                      : UTF-8
    Codec ID                    : S_TEXT/UTF8
    Codec ID/Info               : UTF-8 Plain Text
    Duration                    : 1 h 3 min
    Bit rate                    : 0 b/s
    Count of elements           : 2
    Stream size                 : 71.0 Bytes (0%)
    Title                       : Forzados [CinemaniaHDD]
    Language                    : Spanish
    Default                     : Yes
    Forced                      : Yes

    Text #2
    ID                          : 5
    Format                      : UTF-8
    Codec ID                    : S_TEXT/UTF8
    Codec ID/Info               : UTF-8 Plain Text
    Duration                    : 1 h 51 min
    Bit rate                    : 68 b/s
    Count of elements           : 1469
    Stream size                 : 55.5 KiB (0%)
    Title                       : Español latino [CinemaniaHDD]
    Language                    : Spanish
    Default                     : No
    Forced                      : No

    Text #3
    ID                          : 6
    Format                      : UTF-8
    Codec ID                    : S_TEXT/UTF8
    Codec ID/Info               : UTF-8 Plain Text
    Duration                    : 1 h 52 min
    Bit rate                    : 63 b/s
    Count of elements           : 1580
    Stream size                 : 52.6 KiB (0%)
    Title                       : Inglés [CinemaniaHDD]
    Language                    : English
    Default                     : No
    Forced                      : No

    Menu
    00:00:00.000                : en:Studio Logo
    00:00:38.000                : en:Scene 2
    00:01:27.000                : en:Title Sequence
    00:01:32.000                : en:Scene 4
    00:06:49.000                : en:Scene 5
    00:08:21.000                : en:Scene 6
    00:09:07.000                : en:Scene 7
    00:11:33.000                : en:Scene 8
    00:16:00.000                : en:Scene 9
    00:23:14.000                : en:Scene 10
    00:28:36.000                : en:Scene 11
    00:32:28.000                : en:Scene 12
    00:39:40.000                : en:Scene 13
    00:41:01.000                : en:Scene 14
    00:42:07.000                : en:Scene 15
    00:50:56.000                : en:Scene 16
    00:53:04.000                : en:Scene 17
    00:57:43.000                : en:Scene 18
    00:59:23.000                : en:Scene 19
    01:03:06.000                : en:Scene 20
    01:06:10.000                : en:Scene 21
    01:10:46.000                : en:Scene 22
    01:16:26.000                : en:Scene 23
    01:19:23.000                : en:Scene 24
    01:24:11.000                : en:Scene 25
    01:30:10.000                : en:Scene 26
    01:39:41.000                : en:Scene 27
    01:44:27.000                : en:Scene 28
    01:50:53.000                : en:End Credits

     

  • Peso: 8.43 GiB

Sinopsis

Tras las amenazas a la Casa Blanca y Londres, esta vez el objetivo a batir es el agente del Servicio Secreto de Estados Unidos Banning (Gerard Butler), quien se ha ganado muchos enemigos al haber frustrado los diferentes planes terroristas hasta ahora.

Español Latino AC3 5.1 DVD – Ingles 5.1 E-AC3 5.1 AMAZON

Ficha técnica

  • Titulo original: Angel Has Fallen
  • Fecha de lanzamiento: 21-08-2019 (United States of America)
  • Director: Ric Roman Waugh
  • Género: Acción

Video trailer de la película

Enlaces de descarga

Rip de Bluray

Descargar Presidente bajo fuego (2019) AMZN WEB-DL 1080p Latino




Aportes de DPeliculasHDmega la pass es:dpeliculashdmega.org Aportes de CinemaniaHD la pass es:cinemaniahdd.com
Guardado en : Acción

Películas relacionadas

  • Wire Room (2022) HD 1080p Latino

    Wire Room (2022) HD 1080p Latino

    2022
    Wire Room (2022) HD 1080p Latino

    1h 37m 2022

    Descargar Wire Room (2022) HD 1080p Latino. Mientras está de servicio en la sala de cables, un agente...

    Director: Matt Eskandari

    Género: Acción

    Actores: Texas Battle

  • Wire Room (2022) PLACEBO Full HD 1080p Latino

    Wire Room (2022) PLACEBO Full HD 1080p Latino

    2022
    Wire Room (2022) PLACEBO Full HD 1080p Latino

    1h 37m 2022

    Descargar Wire Room (2022) PLACEBO Full HD 1080p Latino. Mientras está de servicio en la sala de cables,...

    Director: Matt Eskandari

    Género: Acción

    Actores: Texas Battle

  • Wire Room (2022) REMUX 1080p Latino

    Wire Room (2022) REMUX 1080p Latino

    2022
    Wire Room (2022) REMUX 1080p Latino

    1h 37m 2022

    Descargar Wire Room (2022) REMUX 1080p Latino. Mientras está de servicio en la sala de cables, un agente...

    Director: Matt Eskandari

    Género: Acción

    Actores: Texas Battle

  • El Cuartel Secreto (2022) WEB-DL 4K UHD HDR Latino

    El Cuartel Secreto (2022) WEB-DL 4K UHD HDR Latino

    2022
    El Cuartel Secreto (2022) WEB-DL 4K UHD HDR Latino

    1h 44m 2022

    Descargar El Cuartel Secreto (2022) WEB-DL 4K UHD HDR Latino. Mientras pasan el rato después de la escuela,...

    Director: Henry Joost

    Género: 4K HDR

    Actores: Zeb Slone

  • El Cuartel Secreto (2022) WEB-DL 1080p Latino

    El Cuartel Secreto (2022) WEB-DL 1080p Latino

    2022
    El Cuartel Secreto (2022) WEB-DL 1080p Latino

    1h 44m 2022

    Descargar El Cuartel Secreto (2022) WEB-DL 1080p Latino. Mientras pasan el rato después de la escuela,...

    Director: Henry Joost

    Género: Acción

    Actores: Zeb Slone

descargar Presidente bajo fuego (2019) AMZN WEB-DL 1080p Latino WEBDL 1080p gratis, Presidente bajo fuego (2019) AMZN WEB-DL 1080p Latino WEBDL mega 1 link, Presidente bajo fuego (2019) AMZN WEB-DL 1080p Latino WEBDL pelicula completa, descargar Presidente bajo fuego (2019) AMZN WEB-DL 1080p Latino WEBDL gratis en mega.

Presidente bajo fuego (2019) AMZN WEB-DL 1080p Latino pelicula full hd, Presidente bajo fuego (2019) AMZN WEB-DL 1080p Latino mega latino, Presidente bajo fuego (2019) AMZN WEB-DL 1080p Latino 4k latino, Presidente bajo fuego (2019) AMZN WEB-DL 1080p Latino pelicula completa, Presidente bajo fuego (2019) AMZN WEB-DL 1080p Latino descargar gratis, descargar Presidente bajo fuego (2019) AMZN WEB-DL 1080p Latino pelicula latino, Presidente bajo fuego (2019) AMZN WEB-DL 1080p Latino 1 link mega, Presidente bajo fuego (2019) AMZN WEB-DL 1080p Latino 1 link google drive, Presidente bajo fuego (2019) AMZN WEB-DL 1080p Latino hd 1080p latino.
Comentarios 0