×

¿Problemas para descargar con Mozilla, EDGE? Deshabilita la opción "Abrir vinculos en una pestaña nueva" tal como lo muestra ésta imagen.

Predators (2010) REMUX 4K HDR Latino – CMHDD

258 vistas

Información de Predators (2010) REMUX 4K HDR Latino – CMHDD

Datos de la película

  • Calidad: 4K HDR
  • Audio: Español Latino AC3 5.1 BLURAY - Ingles DTS 5.1 BLURAY
  • Subtitulos: Español Latino PGS
  • Resolución: 3840x2160p
  • Formato: MKV
  • Codec: H.264
  • Encoder: Dracarys
  • Mediainfo: Clic para Mostrar Datos Ver
  • Format                      : Matroska
    Format version              : Version 4
    File size                   : 47.2 GiB
    Duration                    : 1 h 46 min
    Overall bit rate mode       : Variable
    Overall bit rate            : 63.2 Mb/s
    Movie name                  : Predators (2010) REMUX 4K HDR Latino - CMHDD
    Encoded date                : UTC 2023-03-07 01:17:56
    Writing application         : mkvmerge v47.0.0 ('Black Flag') 64-bit
    Writing library             : libebml v1.3.10 + libmatroska v1.5.2

    Video
    ID                          : 1
    ID in the original source m : 4113 (0x1011)
    Format                      : HEVC
    Format/Info                 : High Efficiency Video Coding
    Format profile              : Main 10@L5.1@High
    HDR format                  : SMPTE ST 2086, HDR10 compatible
    Codec ID                    : V_MPEGH/ISO/HEVC
    Duration                    : 1 h 46 min
    Bit rate                    : 57.3 Mb/s
    Width                       : 3 840 pixels
    Height                      : 2 160 pixels
    Display aspect ratio        : 16:9
    Frame rate mode             : Constant
    Frame rate                  : 23.976 (24000/1001) FPS
    Color space                 : YUV
    Chroma subsampling          : 4:2:0 (Type 2)
    Bit depth                   : 10 bits
    Bits/(Pixel*Frame)          : 0.288
    Stream size                 : 42.8 GiB (91%)
    Language                    : English
    Default                     : No
    Forced                      : No
    Color range                 : Limited
    Color primaries             : BT.2020
    Transfer characteristics    : PQ
    Matrix coefficients         : BT.2020 non-constant
    Mastering display color pri : Display P3
    Mastering display luminance : min: 0.0050 cd/m2, max: 1000 cd/m2
    Original source medium      : Blu-ray

    Audio #1
    ID                          : 2
    ID in the original source m : 4352 (0x1100)
    Format                      : DTS XLL
    Format/Info                 : Digital Theater Systems
    Commercial name             : DTS-HD Master Audio
    Codec ID                    : A_DTS
    Duration                    : 1 h 46 min
    Bit rate mode               : Variable
    Bit rate                    : 4 031 kb/s
    Channel(s)                  : 6 channels
    Channel layout              : C L R Ls Rs LFE
    Sampling rate               : 48.0 kHz
    Frame rate                  : 93.750 FPS (512 SPF)
    Bit depth                   : 24 bits
    Compression mode            : Lossless
    Stream size                 : 3.01 GiB (6%)
    Title                       : DTS-HD MA 5.1
    Language                    : English
    Default                     : No
    Forced                      : No
    Original source medium      : Blu-ray

    Audio #2
    ID                          : 3
    Format                      : AC-3
    Format/Info                 : Audio Coding 3
    Commercial name             : Dolby Digital
    Codec ID                    : A_AC3
    Duration                    : 1 h 46 min
    Bit rate mode               : Constant
    Bit rate                    : 640 kb/s
    Channel(s)                  : 6 channels
    Channel layout              : L R C LFE Ls Rs
    Sampling rate               : 48.0 kHz
    Frame rate                  : 31.250 FPS (1536 SPF)
    Compression mode            : Lossy
    Stream size                 : 489 MiB (1%)
    Title                       : DD 5.1
    Language                    : English
    Service kind                : Complete Main
    Default                     : No
    Forced                      : No

    Audio #3
    ID                          : 4
    ID in the original source m : 4353 (0x1101)
    Format                      : AC-3
    Format/Info                 : Audio Coding 3
    Commercial name             : Dolby Digital
    Codec ID                    : A_AC3
    Duration                    : 1 h 46 min
    Bit rate mode               : Constant
    Bit rate                    : 448 kb/s
    Channel(s)                  : 6 channels
    Channel layout              : L R C LFE Ls Rs
    Sampling rate               : 48.0 kHz
    Frame rate                  : 31.250 FPS (1536 SPF)
    Compression mode            : Lossy
    Stream size                 : 343 MiB (1%)
    Title                       : DD 5.1
    Language                    : English
    Service kind                : Complete Main
    Default                     : No
    Forced                      : No
    Original source medium      : Blu-ray

    Audio #4
    ID                          : 5
    ID in the original source m : 4354 (0x1102)
    Format                      : AC-3
    Format/Info                 : Audio Coding 3
    Commercial name             : Dolby Digital
    Codec ID                    : A_AC3
    Duration                    : 1 h 46 min
    Bit rate mode               : Constant
    Bit rate                    : 448 kb/s
    Channel(s)                  : 6 channels
    Channel layout              : L R C LFE Ls Rs
    Sampling rate               : 48.0 kHz
    Frame rate                  : 31.250 FPS (1536 SPF)
    Compression mode            : Lossy
    Stream size                 : 343 MiB (1%)
    Title                       : DD 5.1
    Language                    : Spanish
    Service kind                : Complete Main
    Default                     : Yes
    Forced                      : No
    Original source medium      : Blu-ray

    Text #1
    ID                          : 6
    ID in the original source m : 4769 (0x12A1)
    Format                      : PGS
    Muxing mode                 : zlib
    Codec ID                    : S_HDMV/PGS
    Codec ID/Info               : Picture based subtitle format used on BDs/HD-DVDs
    Duration                    : 1 h 45 min
    Bit rate                    : 14.0 kb/s
    Frame rate                  : 0.237 FPS
    Count of elements           : 1500
    Stream size                 : 10.5 MiB (0%)
    Language                    : Spanish
    Default                     : No
    Forced                      : No
    Original source medium      : Blu-ray

    Text #2
    ID                          : 7
    ID in the original source m : 4779 (0x12AB)
    Format                      : PGS
    Muxing mode                 : zlib
    Codec ID                    : S_HDMV/PGS
    Codec ID/Info               : Picture based subtitle format used on BDs/HD-DVDs
    Duration                    : 1 h 46 min
    Bit rate                    : 95.7 kb/s
    Frame rate                  : 0.683 FPS
    Count of elements           : 4378
    Stream size                 : 73.1 MiB (0%)
    Title                       : COMMENTARY
    Language                    : English
    Default                     : No
    Forced                      : No
    Original source medium      : Blu-ray

    Text #3
    ID                          : 8
    ID in the original source m : 4780 (0x12AC)
    Format                      : PGS
    Muxing mode                 : zlib
    Codec ID                    : S_HDMV/PGS
    Codec ID/Info               : Picture based subtitle format used on BDs/HD-DVDs
    Duration                    : 1 h 46 min
    Bit rate                    : 72.9 kb/s
    Frame rate                  : 0.671 FPS
    Count of elements           : 4298
    Stream size                 : 55.7 MiB (0%)
    Title                       : COMMENTARY
    Language                    : French
    Default                     : No
    Forced                      : No
    Original source medium      : Blu-ray

    Text #4
    ID                          : 9
    ID in the original source m : 4781 (0x12AD)
    Format                      : PGS
    Muxing mode                 : zlib
    Codec ID                    : S_HDMV/PGS
    Codec ID/Info               : Picture based subtitle format used on BDs/HD-DVDs
    Duration                    : 1 h 46 min
    Bit rate                    : 85.5 kb/s
    Frame rate                  : 0.672 FPS
    Count of elements           : 4308
    Stream size                 : 65.3 MiB (0%)
    Title                       : COMMENTARY
    Language                    : Spanish
    Default                     : No
    Forced                      : No
    Original source medium      : Blu-ray

    Text #5
    ID                          : 10
    ID in the original source m : 4782 (0x12AE)
    Format                      : PGS
    Muxing mode                 : zlib
    Codec ID                    : S_HDMV/PGS
    Codec ID/Info               : Picture based subtitle format used on BDs/HD-DVDs
    Duration                    : 1 h 46 min
    Bit rate                    : 74.8 kb/s
    Frame rate                  : 0.671 FPS
    Count of elements           : 4296
    Stream size                 : 57.2 MiB (0%)
    Title                       : COMMENTARY
    Language                    : Dutch
    Default                     : No
    Forced                      : No
    Original source medium      : Blu-ray

    Text #6
    ID                          : 11
    ID in the original source m : 4783 (0x12AF)
    Format                      : PGS
    Muxing mode                 : zlib
    Codec ID                    : S_HDMV/PGS
    Codec ID/Info               : Picture based subtitle format used on BDs/HD-DVDs
    Duration                    : 1 h 46 min
    Bit rate                    : 82.3 kb/s
    Frame rate                  : 0.671 FPS
    Count of elements           : 4296
    Stream size                 : 62.9 MiB (0%)
    Title                       : COMMENTARY
    Language                    : German
    Default                     : No
    Forced                      : No
    Original source medium      : Blu-ray

    Text #7
    ID                          : 12
    ID in the original source m : 4784 (0x12B0)
    Format                      : PGS
    Muxing mode                 : zlib
    Codec ID                    : S_HDMV/PGS
    Codec ID/Info               : Picture based subtitle format used on BDs/HD-DVDs
    Duration                    : 1 h 46 min
    Bit rate                    : 75.2 kb/s
    Frame rate                  : 0.671 FPS
    Count of elements           : 4296
    Stream size                 : 57.4 MiB (0%)
    Title                       : COMMENTARY
    Language                    : Italian
    Default                     : No
    Forced                      : No
    Original source medium      : Blu-ray

    Text #8
    ID                          : 13
    ID in the original source m : 4785 (0x12B1)
    Format                      : PGS
    Muxing mode                 : zlib
    Codec ID                    : S_HDMV/PGS
    Codec ID/Info               : Picture based subtitle format used on BDs/HD-DVDs
    Duration                    : 1 h 37 min
    Bit rate                    : 10.4 kb/s
    Frame rate                  : 0.229 FPS
    Count of elements           : 1348
    Stream size                 : 7.26 MiB (0%)
    Title                       : COMMENTARY
    Language                    : Japanese
    Default                     : No
    Forced                      : No
    Original source medium      : Blu-ray

    Text #9
    ID                          : 14
    ID in the original source m : 4786 (0x12B2)
    Format                      : PGS
    Muxing mode                 : zlib
    Codec ID                    : S_HDMV/PGS
    Codec ID/Info               : Picture based subtitle format used on BDs/HD-DVDs
    Duration                    : 1 h 42 min
    Bit rate                    : 45.8 kb/s
    Frame rate                  : 0.474 FPS
    Count of elements           : 2908
    Stream size                 : 33.5 MiB (0%)
    Title                       : COMMENTARY
    Language                    : Japanese
    Default                     : No
    Forced                      : No
    Original source medium      : Blu-ray

    Text #10
    ID                          : 15
    ID in the original source m : 4787 (0x12B3)
    Format                      : PGS
    Muxing mode                 : zlib
    Codec ID                    : S_HDMV/PGS
    Codec ID/Info               : Picture based subtitle format used on BDs/HD-DVDs
    Duration                    : 1 h 43 min
    Bit rate                    : 13.5 kb/s
    Frame rate                  : 0.240 FPS
    Count of elements           : 1498
    Stream size                 : 10.0 MiB (0%)
    Title                       : COMMENTARY
    Language                    : Danish
    Default                     : No
    Forced                      : No
    Original source medium      : Blu-ray

    Text #11
    ID                          : 16
    ID in the original source m : 4788 (0x12B4)
    Format                      : PGS
    Muxing mode                 : zlib
    Codec ID                    : S_HDMV/PGS
    Codec ID/Info               : Picture based subtitle format used on BDs/HD-DVDs
    Duration                    : 1 h 43 min
    Bit rate                    : 12.9 kb/s
    Frame rate                  : 0.240 FPS
    Count of elements           : 1496
    Stream size                 : 9.60 MiB (0%)
    Title                       : COMMENTARY
    Language                    : Finnish
    Default                     : No
    Forced                      : No
    Original source medium      : Blu-ray

    Text #12
    ID                          : 17
    ID in the original source m : 4789 (0x12B5)
    Format                      : PGS
    Muxing mode                 : zlib
    Codec ID                    : S_HDMV/PGS
    Codec ID/Info               : Picture based subtitle format used on BDs/HD-DVDs
    Duration                    : 1 h 43 min
    Bit rate                    : 13.5 kb/s
    Frame rate                  : 0.240 FPS
    Count of elements           : 1498
    Stream size                 : 10.0 MiB (0%)
    Title                       : COMMENTARY
    Language                    : Norwegian
    Default                     : No
    Forced                      : No
    Original source medium      : Blu-ray

    Text #13
    ID                          : 18
    ID in the original source m : 4790 (0x12B6)
    Format                      : PGS
    Muxing mode                 : zlib
    Codec ID                    : S_HDMV/PGS
    Codec ID/Info               : Picture based subtitle format used on BDs/HD-DVDs
    Duration                    : 1 h 43 min
    Bit rate                    : 13.5 kb/s
    Frame rate                  : 0.241 FPS
    Count of elements           : 1500
    Stream size                 : 10.1 MiB (0%)
    Title                       : COMMENTARY
    Language                    : Swedish
    Default                     : No
    Forced                      : No
    Original source medium      : Blu-ray

    Text #14
    ID                          : 19
    ID in the original source m : 4791 (0x12B7)
    Format                      : PGS
    Muxing mode                 : zlib
    Codec ID                    : S_HDMV/PGS
    Codec ID/Info               : Picture based subtitle format used on BDs/HD-DVDs
    Duration                    : 1 h 46 min
    Bit rate                    : 74.6 kb/s
    Frame rate                  : 0.671 FPS
    Count of elements           : 4296
    Stream size                 : 56.9 MiB (0%)
    Title                       : COMMENTARY
    Language                    : Danish
    Default                     : No
    Forced                      : No
    Original source medium      : Blu-ray

    Text #15
    ID                          : 20
    ID in the original source m : 4792 (0x12B8)
    Format                      : PGS
    Muxing mode                 : zlib
    Codec ID                    : S_HDMV/PGS
    Codec ID/Info               : Picture based subtitle format used on BDs/HD-DVDs
    Duration                    : 1 h 46 min
    Bit rate                    : 68.6 kb/s
    Frame rate                  : 0.671 FPS
    Count of elements           : 4296
    Stream size                 : 52.4 MiB (0%)
    Title                       : COMMENTARY
    Language                    : Finnish
    Default                     : No
    Forced                      : No
    Original source medium      : Blu-ray

    Text #16
    ID                          : 21
    ID in the original source m : 4793 (0x12B9)
    Format                      : PGS
    Muxing mode                 : zlib
    Codec ID                    : S_HDMV/PGS
    Codec ID/Info               : Picture based subtitle format used on BDs/HD-DVDs
    Duration                    : 1 h 46 min
    Bit rate                    : 74.2 kb/s
    Frame rate                  : 0.671 FPS
    Count of elements           : 4298
    Stream size                 : 56.6 MiB (0%)
    Title                       : COMMENTARY
    Language                    : Norwegian
    Default                     : No
    Forced                      : No
    Original source medium      : Blu-ray

    Text #17
    ID                          : 22
    ID in the original source m : 4794 (0x12BA)
    Format                      : PGS
    Muxing mode                 : zlib
    Codec ID                    : S_HDMV/PGS
    Codec ID/Info               : Picture based subtitle format used on BDs/HD-DVDs
    Duration                    : 1 h 46 min
    Bit rate                    : 63.6 kb/s
    Frame rate                  : 0.671 FPS
    Count of elements           : 4298
    Stream size                 : 48.6 MiB (0%)
    Title                       : COMMENTARY
    Language                    : Swedish
    Default                     : No
    Forced                      : No
    Original source medium      : Blu-ray

    Menu
    00:00:00.000                : en:Chapter 01
    00:05:26.868                : en:Chapter 02
    00:07:57.393                : en:Chapter 03
    00:13:33.521                : en:Chapter 04
    00:17:26.587                : en:Chapter 05
    00:20:02.075                : en:Chapter 06
    00:23:46.299                : en:Chapter 07
    00:26:19.119                : en:Chapter 08
    00:31:34.642                : en:Chapter 09
    00:34:56.511                : en:Chapter 10
    00:38:24.719                : en:Chapter 11
    00:41:57.056                : en:Chapter 12
    00:46:12.603                : en:Chapter 13
    00:49:57.786                : en:Chapter 14
    00:53:27.704                : en:Chapter 15
    00:57:42.792                : en:Chapter 16
    01:02:11.853                : en:Chapter 17
    01:05:48.736                : en:Chapter 18
    01:09:38.757                : en:Chapter 19
    01:14:17.077                : en:Chapter 20
    01:16:25.539                : en:Chapter 21
    01:19:26.928                : en:Chapter 22
    01:21:34.472                : en:Chapter 23
    01:23:51.901                : en:Chapter 24
    01:27:33.539                : en:Chapter 25
    01:30:48.234                : en:Chapter 26
    01:34:12.563                : en:Chapter 27
    01:41:17.446                : en:Chapter 28

  • Peso: 47.2 GiB

Sinopsis

Royce es un mercenario que, a regañadientes, encabeza a un grupo de guerreros de élite que acaban dándose cuenta de que los han llevado juntos a otro planeta… para servir de presa. Con la excepción de un médico desprestigiado, todos ellos son unos desalmados asesinos —mercenarios, yakuzas, presidiarios, miembros de escuadrones de la muerte—, “depredadores” humanos que ahora están siendo cazados y eliminados sistemáticamente por una nueva raza de Depredadores extraterrestres.

Ficha técnica

Video trailer de la película

Enlaces de descarga

Rip de Bluray

Descargar Predators (2010) REMUX 4K HDR Latino – CMHDD


Aportes de DPeliculasHDmega la pass es:dpeliculashdmega.org Aportes de CinemaniaHD la pass es:cinemaniahdd.com Aportes recientes:cinemaniahdd.net
Guardado en : Acción , Ciencia ficción , Suspenso

Películas relacionadas

  • Combate clandestino (2024) AMZN WEB-DL 1080p Latino

    Combate clandestino (2024) AMZN WEB-DL 1080p Latino

    2024
    Combate clandestino (2024) AMZN WEB-DL 1080p Latino

    1h 30m 2024

    Descargar Combate clandestino (2024) AMZN WEB-DL 1080p Latino. Un ex soldado a la deriva se convierte...

    Director: Christian Sesma

    Género: Acción

    Actores: Tyler Wombles

  • ¡Patos! (2023) HD 1080p Latino

    ¡Patos! (2023) HD 1080p Latino

    2023
    ¡Patos! (2023) HD 1080p Latino

    1h 23m 2023

    Descargar ¡Patos! (2023) HD 1080p Latino. Después de que una familia de patos migratorios aterriza...

    Director: Guy-Laurent Homsy

    Género: Acción

    Actores: Zeno Robinson

  • ¡Patos! (2023) PLACEBO Full HD 1080p Latino

    ¡Patos! (2023) PLACEBO Full HD 1080p Latino

    2023
    ¡Patos! (2023) PLACEBO Full HD 1080p Latino

    1h 23m 2023

    Descargar ¡Patos! (2023) PLACEBO Full HD 1080p Latino. Después de que una familia de patos migratorios...

    Director: Guy-Laurent Homsy

    Género: Acción

    Actores: Zeno Robinson

  • ¡Patos! (2023) REMUX 1080p Latino

    ¡Patos! (2023) REMUX 1080p Latino

    2023
    ¡Patos! (2023) REMUX 1080p Latino

    1h 23m 2023

    Descargar ¡Patos! (2023) REMUX 1080p Latino. Después de que una familia de patos migratorios aterriza...

    Director: Guy-Laurent Homsy

    Género: Acción

    Actores: Zeno Robinson

descargar Predators (2010) REMUX 4K HDR Latino – CMHDD 4K HDR 1080p gratis, Predators (2010) REMUX 4K HDR Latino – CMHDD 4K HDR mega 1 link, Predators (2010) REMUX 4K HDR Latino – CMHDD 4K HDR pelicula completa, descargar Predators (2010) REMUX 4K HDR Latino – CMHDD 4K HDR gratis en mega.

Predators (2010) REMUX 4K HDR Latino – CMHDD pelicula full hd, Predators (2010) REMUX 4K HDR Latino – CMHDD mega latino, Predators (2010) REMUX 4K HDR Latino – CMHDD 4k latino, Predators (2010) REMUX 4K HDR Latino – CMHDD pelicula completa, Predators (2010) REMUX 4K HDR Latino – CMHDD descargar gratis, descargar Predators (2010) REMUX 4K HDR Latino – CMHDD pelicula latino, Predators (2010) REMUX 4K HDR Latino – CMHDD 1 link mega, Predators (2010) REMUX 4K HDR Latino – CMHDD 1 link google drive, Predators (2010) REMUX 4K HDR Latino – CMHDD hd 1080p latino.
Comentarios 0