Predator 2 (1990) 4K HDR Latino

1.637 vistas
1 estrella2 estrellas3 estrellas4 estrellas5 estrellas (2 votos, promedio: 3,00 de 5)
Cargando…

Información de Predator 2 (1990) 4K HDR Latino

Datos de la película

  • Calidad: 4K HDR
  • Audio: Español Latino AC3 5.1 BLURAY - Ingles DTS 5.1 BLURAY
  • Subtitulos: Español Latino PGS - Ingles PGS
  • Resolución: 3840x2076p
  • Formato: MKV
  • Codec: H.264
  • Encoder: Dracarys
  • Mediainfo: Clic para Mostrar Datos Ver
  • Format                                   : Matroska
    Format version                           : Version 4 / Version 2
    File size                                : 29.9 GiB
    Duration                                 : 1 h 48 min
    Overall bit rate                         : 39.7 Mb/s
    Movie name                               : CinemaniaHDD.net
    Encoded date                             : UTC 2018-08-17 02:21:27
    Writing application                      : mkvmerge v15.0.0 ('Duel with the Devil') 64-bit
    Writing library                          : libebml v1.3.5 + libmatroska v1.4.5

    Video
    ID                                       : 1
    Format                                   : HEVC
    Format/Info                              : High Efficiency Video Coding
    Format profile                           : Main [email protected]@High
    Codec ID                                 : V_MPEGH/ISO/HEVC
    Duration                                 : 1 h 48 min
    Bit rate                                 : 37.7 Mb/s
    Width                                    : 3 840 pixels
    Height                                   : 2 076 pixels
    Display aspect ratio                     : 1.85:1
    Frame rate mode                          : Constant
    Frame rate                               : 23.976 (24000/1001) FPS
    Color space                              : YUV
    Chroma subsampling                       : 4:2:0 (Type 2)
    Bit depth                                : 10 bits
    Bits/(Pixel*Frame)                       : 0.197
    Stream size                              : 28.5 GiB (95%)
    Title                                    : Predator 2 (1990) 4K HDR Latino
    Writing library                          : x265 2.8+10-703eade86b53:[Windows][GCC 8.1.0][64 bit] 10bit
    Encoding settings                        : cpuid=1111039 / frame-threads=4 / numa-pools=16 / wpp / no-pmode / no-pme / no-psnr / no-ssim / log-level=2 / input-csp=1 / input-res=3840x2076 / interlace=0 / total-frames=155378 / level-idc=51 / high-tier=1 / uhd-bd=0 / ref=4 / no-allow-non-conformance / repeat-headers / annexb / aud / hrd / info / hash=0 / no-temporal-layers / no-open-gop / min-keyint=24 / keyint=240 / gop-lookahead=0 / bframes=4 / b-adapt=2 / b-pyramid / bframe-bias=0 / rc-lookahead=25 / lookahead-slices=4 / scenecut=40 / radl=0 / no-intra-refresh / ctu=64 / min-cu-size=8 / rect / no-amp / max-tu-size=32 / tu-inter-depth=1 / tu-intra-depth=1 / limit-tu=0 / rdoq-level=2 / dynamic-rd=0.00 / no-ssim-rd / signhide / no-tskip / nr-intra=0 / nr-inter=0 / no-constrained-intra / no-strong-intra-smoothing / max-merge=3 / limit-refs=3 / limit-modes / me=3 / subme=3 / merange=57 / temporal-mvp / weightp / no-weightb / no-analyze-src-pics / deblock=-3:-3 / no-sao / no-sao-non-deblock / rd=4 / no-early-skip / rskip / no-fast-intra / no-tskip-fast / no-cu-lossless / no-b-intra / no-splitrd-skip / rdpenalty=0 / psy-rd=2.00 / psy-rdoq=1.00 / no-rd-refine / no-lossless / cbqpoffs=0 / crqpoffs=0 / rc=crf / crf=19.0 / qcomp=0.60 / qpstep=4 / stats-write=0 / stats-read=0 / vbv-maxrate=160000 / vbv-bufsize=160000 / vbv-init=0.9 / crf-max=0.0 / crf-min=0.0 / ipratio=1.40 / pbratio=1.30 / aq-mode=1 / aq-strength=1.00 / cutree / zone-count=0 / no-strict-cbr / qg-size=32 / no-rc-grain / qpmax=69 / qpmin=0 / no-const-vbv / sar=1 / overscan=0 / videoformat=5 / range=0 / colorprim=9 / transfer=16 / colormatrix=9 / chromaloc=1 / chromaloc-top=2 / chromaloc-bottom=2 / display-window=0 / master-display=G(13250,34500)B(7500,3000)R(34000,16000)WP(15635,16450)L(10000000,50) / max-cll=0,0 / min-luma=0 / max-luma=1023 / log2-max-poc-lsb=8 / vui-timing-info / vui-hrd-info / slices=1 / no-opt-qp-pps / no-opt-ref-list-length-pps / no-multi-pass-opt-rps / scenecut-bias=0.05 / no-opt-cu-delta-qp / no-aq-motion / hdr / hdr-opt / no-dhdr10-opt / no-idr-recovery-sei / analysis-reuse-level=5 / scale-factor=0 / refine-intra=0 / refine-inter=0 / refine-mv=0 / no-limit-sao / ctu-info=0 / no-lowpass-dct / refine-mv-type=0 / copy-pic=1 / max-ausize-factor=1.0 / no-dynamic-refine / no-single-sei
    Language                                 : English
    Default                                  : Yes
    Forced                                   : No
    Color range                              : Limited
    Color primaries                          : BT.2020
    Transfer characteristics                 : PQ
    Matrix coefficients                      : BT.2020 non-constant
    Mastering display color primaries        : R: x=0.680000 y=0.320000, G: x=0.265000 y=0.690000, B: x=0.150000 y=0.060000, White point: x=0.312700 y=0.329000
    Mastering display luminance              : min: 0.0050 cd/m2, max: 1000.0000 cd/m2

    Audio #1
    ID                                       : 2
    Format                                   : AC-3
    Format/Info                              : Audio Coding 3
    Format settings, Endianness              : Big
    Codec ID                                 : A_AC3
    Duration                                 : 1 h 48 min
    Bit rate mode                            : Constant
    Bit rate                                 : 448 kb/s
    Channel(s)                               : 6 channels
    Channel positions                        : Front: L C R, Side: L R, LFE
    Sampling rate                            : 48.0 kHz
    Frame rate                               : 31.250 FPS (1536 SPF)
    Bit depth                                : 16 bits
    Compression mode                         : Lossy
    Stream size                              : 346 MiB (1%)
    Title                                    : AC3 5.1 Bluray 4K
    Language                                 : Spanish
    Service kind                             : Complete Main
    Default                                  : Yes
    Forced                                   : No

    Audio #2
    ID                                       : 3
    Format                                   : DTS
    Format/Info                              : Digital Theater Systems
    Mode                                     : 16
    Format settings, Endianness              : Big
    Codec ID                                 : A_DTS
    Duration                                 : 1 h 48 min
    Bit rate mode                            : Constant
    Bit rate                                 : 1 509 kb/s
    Channel(s)                               : 6 channels
    Channel positions                        : Front: L C R, Side: L R, LFE
    Sampling rate                            : 48.0 kHz
    Frame rate                               : 93.750 FPS (512 SPF)
    Bit depth                                : 24 bits
    Compression mode                         : Lossy
    Stream size                              : 1.14 GiB (4%)
    Title                                    : DTS 5.1 Bluray 4K
    Language                                 : English
    Default                                  : No
    Forced                                   : No

    Text #1
    ID                                       : 4
    Format                                   : PGS
    Muxing mode                              : zlib
    Codec ID                                 : S_HDMV/PGS
    Codec ID/Info                            : Picture based subtitle format used on BDs/HD-DVDs
    Duration                                 : 9 min 46 s
    Bit rate                                 : 218 b/s
    Count of elements                        : 4
    Stream size                              : 15.6 KiB (0%)
    Title                                    : PGS Forzados
    Language                                 : Spanish
    Default                                  : Yes
    Forced                                   : Yes

    Text #2
    ID                                       : 5
    Format                                   : PGS
    Muxing mode                              : zlib
    Codec ID                                 : S_HDMV/PGS
    Codec ID/Info                            : Picture based subtitle format used on BDs/HD-DVDs
    Duration                                 : 1 h 40 min
    Bit rate                                 : 31.5 kb/s
    Count of elements                        : 1630
    Stream size                              : 22.6 MiB (0%)
    Title                                    : PGS Completos
    Language                                 : Spanish
    Default                                  : No
    Forced                                   : No

    Text #3
    ID                                       : 6
    Format                                   : PGS
    Muxing mode                              : zlib
    Codec ID                                 : S_HDMV/PGS
    Codec ID/Info                            : Picture based subtitle format used on BDs/HD-DVDs
    Duration                                 : 1 h 40 min
    Bit rate                                 : 30.3 kb/s
    Count of elements                        : 2120
    Stream size                              : 21.9 MiB (0%)
    Title                                    : PGS Ingles
    Language                                 : English
    Default                                  : No
    Forced                                   : No

    Menu
    00:00:00.000                             : en:00:00:00.000
    00:03:11.608                             : en:00:03:11.608
    00:07:26.112                             : en:00:07:26.112
    00:11:40.199                             : en:00:11:40.199
    00:14:05.178                             : en:00:14:05.178
    00:16:03.129                             : en:00:16:03.129
    00:18:57.762                             : en:00:18:57.762
    00:22:21.215                             : en:00:22:21.215
    00:25:48.547                             : en:00:25:48.547
    00:29:03.659                             : en:00:29:03.659
    00:30:19.985                             : en:00:30:19.985
    00:32:41.001                             : en:00:32:41.001
    00:36:39.656                             : en:00:36:39.656
    00:41:01.793                             : en:00:41:01.793
    00:43:00.203                             : en:00:43:00.203
    00:47:17.668                             : en:00:47:17.668
    00:51:13.612                             : en:00:51:13.612
    00:53:42.845                             : en:00:53:42.845
    00:58:14.199                             : en:00:58:14.199
    01:01:18.508                             : en:01:01:18.508
    01:04:46.382                             : en:01:04:46.382
    01:07:36.052                             : en:01:07:36.052
    01:15:41.662                             : en:01:15:41.662
    01:16:49.313                             : en:01:16:49.313
    01:19:23.008                             : en:01:19:23.008
    01:22:01.583                             : en:01:22:01.583
    01:26:10.707                             : en:01:26:10.707
    01:31:31.986                             : en:01:31:31.986
    01:33:38.112                             : en:01:33:38.112
    01:36:19.232                             : en:01:36:19.232
    01:37:54.368                             : en:01:37:54.368
    01:41:48.394                             : en:01:41:48.394

  • Peso: 29.9 GiB

Sinopsis

Un grupo de policías de Los Angeles se enfrenta a un misterioso asesino que descuartiza a sus víctimas con un salvajismo inusitado. Pronto, el jefe del grupo, el capitán Harrigan, descubrirá que su enemigo es un alienígena llegado a la Tierra con el único propósito de practicar la caza.

Ficha técnica

Video trailer de la película

Enlaces de descarga

Rip de Bluray

Descargar Predator 2 (1990) 4K HDR Latino




Aportes de DPeliculasHDmega la pass es:dpeliculashdmega.org Aportes de CinemaniaHD la pass es:cinemaniahdd.com

Películas relacionadas

  • Poseído (2018) WEB-DL 1080p Latino

    2018
    Poseído (2018) WEB-DL 1080p Latino

    0.0 1h 27m 2018

    Mary está embarazada de gemelos, pero, en el parto, uno de los bebés muere. Diagnosticada con depresión...

    Director: Brandon Christensen

    Género: Suspense

    Actores: Sheila McCarthy

  • Painless (2017) WEB-DL 1080p Latino

    2017
    Painless (2017) WEB-DL 1080p Latino

    0.0 1h 21m 2017

    Henry Long busca desesperadamente una cura para la afección que lo deja incapaz de sentir dolor físico.

    Director: Jordan Horowitz

    Género: Drama

    Actores: Valeria Sistrunk

  • Distorted (2018) 1080p Latino

    2018
    Distorted (2018) 1080p Latino

    5.0 1h 30m 2018

    Ricci interpreta a una joven con trastorno bipolar que empieza a sospechar que el propietario de un moderno...

    Director: Rob W. King

    Género: Acción

    Actores: Zan Klein

  • El rey de las drogas (2018) WEB-DL NF 1080p Latino

    2018
    El rey de las drogas (2018) WEB-DL NF 1080p Latino

    0.0 2h 19m 2018

    Lee Doo-sam es un pequeño contrabandista de tiempo en Busan, Corea. Un día, ayuda a la mafia a contrabandear...

    Director: Woo Min-ho

    Género: Acción

    Actores: You Jae-myeong

Comentarios 2
  • carvajal oswaldo carvajal - 30 agosto, 2018

    Hola señores Cinemaniahd no se vallan a molestar con este comentario, pero me descargue las tres películas 4K de depredador y las borre por que se ven mucho mejor las remasterizadas. y solo tienen un pesos de un poco mas de 2 GB.

    • Dracarys - 30 agosto, 2018

      Las comparaste en una TV 4K HDR de 55 pulgadas o mas? por que para eso están estas 4K no para verlas en un monitor de menos de 40 pulgadas