Predator (1987) 4K HDR Latino

2.902 vistas
1 estrella2 estrellas3 estrellas4 estrellas5 estrellas (5 votos, promedio: 4,20 de 5)
Cargando…

Información de Predator (1987) 4K HDR Latino

Datos de la película

  • Calidad: 4K HDR
  • Audio: Español Latino AC3 5.1 BLURAY - Ingles DTS 5.1 BLURAY
  • Subtitulos: Español Latino PGS - Ingles PGS
  • Resolución: 3840x2076p
  • Formato: MKV
  • Codec: H.264
  • Encoder: Dracarys
  • Mediainfo: Clic para Mostrar Datos Ver
  • Format                                   : Matroska
    Format version                           : Version 4 / Version 2
    File size                                : 31.0 GiB
    Duration                                 : 1 h 46 min
    Overall bit rate                         : 41.6 Mb/s
    Encoded date                             : UTC 2018-08-17 01:57:13
    Writing application                      : mkvmerge v15.0.0 ('Duel with the Devil') 64-bit
    Writing library                          : libebml v1.3.5 + libmatroska v1.4.5

    Video
    ID                                       : 1
    Format                                   : HEVC
    Format/Info                              : High Efficiency Video Coding
    Format profile                           : Main [email protected]@High
    Codec ID                                 : V_MPEGH/ISO/HEVC
    Duration                                 : 1 h 46 min
    Bit rate                                 : 38.1 Mb/s
    Width                                    : 3 840 pixels
    Height                                   : 2 076 pixels
    Display aspect ratio                     : 1.85:1
    Frame rate mode                          : Constant
    Frame rate                               : 23.976 (24000/1001) FPS
    Color space                              : YUV
    Chroma subsampling                       : 4:2:0 (Type 2)
    Bit depth                                : 10 bits
    Bits/(Pixel*Frame)                       : 0.199
    Stream size                              : 28.4 GiB (92%)
    Title                                    : Predator (1987) 4K HDR Latino
    Writing library                          : x265 2.8+10-703eade86b53:[Windows][GCC 8.1.0][64 bit] 10bit
    Encoding settings                        : cpuid=1176575 / frame-threads=6 / numa-pools=32 / wpp / no-pmode / no-pme / no-psnr / no-ssim / log-level=2 / input-csp=1 / input-res=3840x2076 / interlace=0 / total-frames=153312 / level-idc=51 / high-tier=1 / uhd-bd=0 / ref=4 / no-allow-non-conformance / repeat-headers / annexb / aud / hrd / info / hash=0 / no-temporal-layers / no-open-gop / min-keyint=24 / keyint=240 / gop-lookahead=0 / bframes=4 / b-adapt=2 / b-pyramid / bframe-bias=0 / rc-lookahead=25 / lookahead-slices=4 / scenecut=40 / radl=0 / no-intra-refresh / ctu=64 / min-cu-size=8 / rect / no-amp / max-tu-size=32 / tu-inter-depth=1 / tu-intra-depth=1 / limit-tu=0 / rdoq-level=2 / dynamic-rd=0.00 / no-ssim-rd / signhide / no-tskip / nr-intra=0 / nr-inter=0 / no-constrained-intra / no-strong-intra-smoothing / max-merge=3 / limit-refs=3 / limit-modes / me=3 / subme=3 / merange=57 / temporal-mvp / weightp / no-weightb / no-analyze-src-pics / deblock=-3:-3 / no-sao / no-sao-non-deblock / rd=4 / no-early-skip / rskip / no-fast-intra / no-tskip-fast / no-cu-lossless / no-b-intra / no-splitrd-skip / rdpenalty=0 / psy-rd=2.00 / psy-rdoq=1.00 / no-rd-refine / no-lossless / cbqpoffs=0 / crqpoffs=0 / rc=crf / crf=19.5 / qcomp=0.60 / qpstep=4 / stats-write=0 / stats-read=0 / vbv-maxrate=160000 / vbv-bufsize=160000 / vbv-init=0.9 / crf-max=0.0 / crf-min=0.0 / ipratio=1.40 / pbratio=1.30 / aq-mode=1 / aq-strength=1.00 / cutree / zone-count=0 / no-strict-cbr / qg-size=32 / no-rc-grain / qpmax=69 / qpmin=0 / no-const-vbv / sar=1 / overscan=0 / videoformat=5 / range=0 / colorprim=9 / transfer=16 / colormatrix=9 / chromaloc=1 / chromaloc-top=2 / chromaloc-bottom=2 / display-window=0 / master-display=G(13250,34500)B(7500,3000)R(34000,16000)WP(15635,16450)L(10000000,50) / max-cll=0,0 / min-luma=0 / max-luma=1023 / log2-max-poc-lsb=8 / vui-timing-info / vui-hrd-info / slices=1 / no-opt-qp-pps / no-opt-ref-list-length-pps / no-multi-pass-opt-rps / scenecut-bias=0.05 / no-opt-cu-delta-qp / no-aq-motion / hdr / hdr-opt / no-dhdr10-opt / no-idr-recovery-sei / analysis-reuse-level=5 / scale-factor=0 / refine-intra=0 / refine-inter=0 / refine-mv=0 / no-limit-sao / ctu-info=0 / no-lowpass-dct / refine-mv-type=0 / copy-pic=1 / max-ausize-factor=1.0 / no-dynamic-refine / no-single-sei
    Language                                 : English
    Default                                  : Yes
    Forced                                   : No
    Color range                              : Limited
    Color primaries                          : BT.2020
    Transfer characteristics                 : PQ
    Matrix coefficients                      : BT.2020 non-constant
    Mastering display color primaries        : R: x=0.680000 y=0.320000, G: x=0.265000 y=0.690000, B: x=0.150000 y=0.060000, White point: x=0.312700 y=0.329000
    Mastering display luminance              : min: 0.0050 cd/m2, max: 1000.0000 cd/m2

    Audio #1
    ID                                       : 2
    Format                                   : AC-3
    Format/Info                              : Audio Coding 3
    Format settings, Endianness              : Big
    Codec ID                                 : A_AC3
    Duration                                 : 1 h 46 min
    Bit rate mode                            : Constant
    Bit rate                                 : 448 kb/s
    Channel(s)                               : 6 channels
    Channel positions                        : Front: L C R, Side: L R, LFE
    Sampling rate                            : 48.0 kHz
    Frame rate                               : 31.250 FPS (1536 SPF)
    Bit depth                                : 16 bits
    Compression mode                         : Lossy
    Stream size                              : 341 MiB (1%)
    Title                                    : AC3 5.1 Bluray 4K
    Language                                 : Spanish
    Service kind                             : Complete Main
    Default                                  : Yes
    Forced                                   : No

    Audio #2
    ID                                       : 3
    Format                                   : DTS
    Format/Info                              : Digital Theater Systems
    Mode                                     : 16
    Format settings, Endianness              : Big
    Codec ID                                 : A_DTS
    Duration                                 : 1 h 46 min
    Bit rate mode                            : Constant
    Bit rate                                 : 1 509 kb/s
    Channel(s)                               : 6 channels
    Channel positions                        : Front: L C R, Side: L R, LFE
    Sampling rate                            : 48.0 kHz
    Frame rate                               : 93.750 FPS (512 SPF)
    Bit depth                                : 24 bits
    Compression mode                         : Lossy
    Stream size                              : 1.12 GiB (4%)
    Title                                    : DTS 5.1 Bluray 4K
    Language                                 : English
    Default                                  : No
    Forced                                   : No

    Audio #3
    ID                                       : 4
    Format                                   : DTS
    Format/Info                              : Digital Theater Systems
    Mode                                     : 16
    Format settings, Endianness              : Big
    Codec ID                                 : A_DTS
    Duration                                 : 1 h 46 min
    Bit rate mode                            : Constant
    Bit rate                                 : 1 509 kb/s
    Channel(s)                               : 4 channels
    Channel positions                        : Front: L C R, Back: C
    Sampling rate                            : 48.0 kHz
    Frame rate                               : 93.750 FPS (512 SPF)
    Bit depth                                : 24 bits
    Compression mode                         : Lossy
    Stream size                              : 1.12 GiB (4%)
    Title                                    : DTS 3.1 Audio Original Bluray 4K
    Language                                 : English
    Default                                  : No
    Forced                                   : No

    Text #1
    ID                                       : 5
    Format                                   : PGS
    Muxing mode                              : zlib
    Codec ID                                 : S_HDMV/PGS
    Codec ID/Info                            : Picture based subtitle format used on BDs/HD-DVDs
    Duration                                 : 1 h 37 min
    Bit rate                                 : 11.5 kb/s
    Count of elements                        : 968
    Stream size                              : 8.01 MiB (0%)
    Title                                    : PGS
    Language                                 : Spanish
    Default                                  : No
    Forced                                   : No

    Text #2
    ID                                       : 6
    Format                                   : PGS
    Muxing mode                              : zlib
    Codec ID                                 : S_HDMV/PGS
    Codec ID/Info                            : Picture based subtitle format used on BDs/HD-DVDs
    Duration                                 : 1 h 42 min
    Bit rate                                 : 14.1 kb/s
    Count of elements                        : 1188
    Stream size                              : 10.4 MiB (0%)
    Title                                    : PGS
    Language                                 : English
    Default                                  : No
    Forced                                   : No

    Menu
    00:00:00.000                             : en:00:00:00.000
    00:04:03.869                             : en:00:04:03.869
    00:06:29.222                             : en:00:06:29.222
    00:10:32.048                             : en:00:10:32.048
    00:18:20.766                             : en:00:18:20.766
    00:20:21.137                             : en:00:20:21.137
    00:27:51.920                             : en:00:27:51.920
    00:31:03.862                             : en:00:31:03.862
    00:34:53.300                             : en:00:34:53.300
    00:37:49.184                             : en:00:37:49.184
    00:41:00.416                             : en:00:41:00.416
    00:46:32.957                             : en:00:46:32.957
    00:53:08.227                             : en:00:53:08.227
    01:01:36.943                             : en:01:01:36.943
    01:04:08.303                             : en:01:04:08.303
    01:08:09.460                             : en:01:08:09.460
    01:14:09.904                             : en:01:14:09.904
    01:15:49.754                             : en:01:15:49.754
    01:18:26.911                             : en:01:18:26.911
    01:20:54.433                             : en:01:20:54.433
    01:25:08.812                             : en:01:25:08.812
    01:34:31.374                             : en:01:34:31.374
    01:35:48.660                             : en:01:35:48.660
    01:39:58.201                             : en:01:39:58.201
    01:42:55.711                             : en:01:42:55.711

  • Peso: 31.0 GiB

Sinopsis

Un comando de mercenarios es contratados por la CIA para rescatar a unos pilotos apresados por las guerrillas en la selva Centroamericana. La misión resulta satisfactoria, pero durante su viaje de regreso se dan cuenta de que algo está dándoles caza uno a uno, ese algo resulta ser un cazador alienígena que se queda con las calaveras de sus víctimas como trofeos

Ficha técnica

Video trailer de la película

Enlaces de descarga

Rip de Bluray

Descargar Predator (1987) 4K HDR Latino




Aportes de DPeliculasHDmega la pass es:dpeliculashdmega.org Aportes de CinemaniaHD la pass es:cinemaniahdd.com

Películas relacionadas

  • Poseído (2018) WEB-DL 1080p Latino

    2018
    Poseído (2018) WEB-DL 1080p Latino

    0.0 1h 27m 2018

    Mary está embarazada de gemelos, pero, en el parto, uno de los bebés muere. Diagnosticada con depresión...

    Director: Brandon Christensen

    Género: Suspense

    Actores: Sheila McCarthy

  • Painless (2017) WEB-DL 1080p Latino

    2017
    Painless (2017) WEB-DL 1080p Latino

    0.0 1h 21m 2017

    Henry Long busca desesperadamente una cura para la afección que lo deja incapaz de sentir dolor físico.

    Director: Jordan Horowitz

    Género: Drama

    Actores: Valeria Sistrunk

  • Distorted (2018) 1080p Latino

    2018
    Distorted (2018) 1080p Latino

    5.0 1h 30m 2018

    Ricci interpreta a una joven con trastorno bipolar que empieza a sospechar que el propietario de un moderno...

    Director: Rob W. King

    Género: Acción

    Actores: Zan Klein

  • El rey de las drogas (2018) WEB-DL NF 1080p Latino

    2018
    El rey de las drogas (2018) WEB-DL NF 1080p Latino

    0.0 2h 19m 2018

    Lee Doo-sam es un pequeño contrabandista de tiempo en Busan, Corea. Un día, ayuda a la mafia a contrabandear...

    Director: Woo Min-ho

    Género: Acción

    Actores: You Jae-myeong

Comentarios 0