×

¿Problemas para descargar con Mozilla, EDGE? Deshabilita la opción "Abrir vinculos en una pestaña nueva" tal como lo muestra ésta imagen.

Preacher (2018) Tercera Temporada WEB-DL [AMZN] 1080p Latino

650 vistas

Información de Preacher (2018) Tercera Temporada WEB-DL [AMZN] 1080p Latino

Datos de la película

  • Calidad: WEBDL
  • Audio: Español Latino E-AC3 5.1 AMAZON - Ingles E-AC3 5.1 AMAZON
  • Subtitulos: Español Latino SRT
  • Resolución: 1920x1080p
  • Formato: MKV
  • Codec: H.264
  • Encoder: Dracarys
  • Mediainfo: Clic para Mostrar Datos Ver
  • Format                      : Matroska
    Format version              : Version 4
    File size                   : 2.60 GiB
    Duration                    : 41 min 55 s
    Overall bit rate            : 8 865 kb/s
    Movie name                  : CinemaniaHDD.net
    Encoded date                : UTC 2020-03-11 20:59:54
    Writing application         : mkvmerge v38.0.0 ('The Silent Type') 64-bit
    Writing library             : libebml v1.3.9 + libmatroska v1.5.2

    Video
    ID                          : 1
    Format                      : AVC
    Format/Info                 : Advanced Video Codec
    Format profile              : High@L4
    Format settings             : CABAC / 4 Ref Frames
    Format settings, CABAC      : Yes
    Format settings, ReFrames   : 4 frames
    Codec ID                    : V_MPEG4/ISO/AVC
    Duration                    : 41 min 55 s
    Bit rate                    : 7 583 kb/s
    Width                       : 1 920 pixels
    Height                      : 1 080 pixels
    Display aspect ratio        : 16:9
    Frame rate mode             : Constant
    Frame rate                  : 23.976 (24000/1001) FPS
    Color space                 : YUV
    Chroma subsampling          : 4:2:0
    Bit depth                   : 8 bits
    Scan type                   : Progressive
    Bits/(Pixel*Frame)          : 0.153
    Stream size                 : 2.22 GiB (86%)
    Default                     : Yes
    Forced                      : No
    Color range                 : Limited
    Color primaries             : BT.709
    Transfer characteristics    : BT.709
    Matrix coefficients         : BT.709

    Audio #1
    ID                          : 2
    Format                      : E-AC-3
    Format/Info                 : Enhanced AC-3
    Commercial name             : Dolby Digital Plus
    Codec ID                    : A_EAC3
    Duration                    : 41 min 55 s
    Bit rate mode               : Constant
    Bit rate                    : 640 kb/s
    Channel(s)                  : 6 channels
    Channel layout              : L R C LFE Ls Rs
    Sampling rate               : 48.0 kHz
    Frame rate                  : 31.250 FPS (1536 SPF)
    Compression mode            : Lossy
    Stream size                 : 192 MiB (7%)
    Language                    : Spanish
    Service kind                : Complete Main
    Default                     : Yes
    Forced                      : No

    Audio #2
    ID                          : 3
    Format                      : E-AC-3
    Format/Info                 : Enhanced AC-3
    Commercial name             : Dolby Digital Plus
    Codec ID                    : A_EAC3
    Duration                    : 41 min 55 s
    Bit rate mode               : Constant
    Bit rate                    : 640 kb/s
    Channel(s)                  : 6 channels
    Channel layout              : L R C LFE Ls Rs
    Sampling rate               : 48.0 kHz
    Frame rate                  : 31.250 FPS (1536 SPF)
    Compression mode            : Lossy
    Stream size                 : 192 MiB (7%)
    Language                    : English
    Service kind                : Complete Main
    Default                     : No
    Forced                      : No

    Text
    ID                          : 4
    Format                      : UTF-8
    Codec ID                    : S_TEXT/UTF8
    Codec ID/Info               : UTF-8 Plain Text
    Duration                    : 41 min 16 s
    Bit rate                    : 41 b/s
    Count of elements           : 393
    Stream size                 : 12.6 KiB (0%)
    Title                       : Latin American
    Language                    : Spanish
    Default                     : No
    Forced                      : No

  • Peso: 2.60 GiB X Capitulo

Sinopsis

Una mañana cualquiera Jesse Custer, un duro reverendo de Texas, es invadido por una misteriosa entidad celestial mientras se encuentra predicando en la iglesia. Esta entidad, en forma de halo de luz, posee el cuerpo de Custer y, en el proceso, destruye la iglesia del pueblo, matando a la congregación entera.  Sorprendido por este hecho, el predicador descubre que esta criatura misteriosa le brinda un poder inimaginable, La Palabra de Dios, mediante el cual puede hacer que los demás cumplan su voluntad con tan solo verbalizar lo que desea. Después de estos eventos y de un duro trance, Custer descubre que Dios ha abandonado el cielo y ha huído de sus responsabilidades, por lo que pierde la fe.

Custer ve en sí mismo a la única persona capaz de rastrear al Todopoderoso y de hacerle responder por su negligencia en el cumplimiento del deber. Pero no está sólo en su aventura: su ex novia Tulip y un simpático vampiro llamado Cassidy que parece preferir una cerveza a la sangre se unirán al viaje. Mientras, una imparable máquina de matar conocida como el Santo de los Asesinos no les pondrá nada fácil alcanzar su objetivo.

Ficha técnica

Video trailer de la película

Enlaces de descarga

Rip de Bluray

Descargar Preacher (2018) Tercera Temporada WEB-DL [AMZN] 1080p Latino




Aportes de DPeliculasHDmega la pass es:dpeliculashdmega.org Aportes de CinemaniaHD la pass es:cinemaniahdd.com
Guardado en : Drama , Misterio , Sci-Fi & Fantasy , Series

Películas relacionadas

  • Stromboli (2022) NF WEB-DL 1080p Latino

    Stromboli (2022) NF WEB-DL 1080p Latino

    2022
    Stromboli (2022) NF WEB-DL 1080p Latino

    1h 26m 2022

    Descargar Stromboli (2022) NF WEB-DL 1080p Latino. Sara, una mujer que se ha divorciado recientemente,...

    Director: Michiel van Erp

    Género: Drama

    Actores: Tim McInnerny

  • Infiesto (2023) NF WEB-DL 1080p Castellano

    Infiesto (2023) NF WEB-DL 1080p Castellano

    2023
    Infiesto (2023) NF WEB-DL 1080p Castellano

    1h 36m 2023

    Descargar Infiesto (2023) NF WEB-DL 1080p Castellano. Mientras el coronavirus trastoca sus vidas, dos...

    Director: Patxi Amezcua

    Género: Crimen

    Actores: Luis Zahera

  • Espiritu Libre (2023) NF WEB-DL 1080p Latino

    Espiritu Libre (2023) NF WEB-DL 1080p Latino

    2023
    Espiritu Libre (2023) NF WEB-DL 1080p Latino

    1h 49m 2023

    Descargar Espiritu Libre (2023) NF WEB-DL 1080p Latino. La película se basa en la increíble historia...

    Director: Sarah Spillane

    Género: Aventura

    Actores: Vivien Turner

descargar Preacher (2018) Tercera Temporada WEB-DL [AMZN] 1080p Latino WEBDL 1080p gratis, Preacher (2018) Tercera Temporada WEB-DL [AMZN] 1080p Latino WEBDL mega 1 link, Preacher (2018) Tercera Temporada WEB-DL [AMZN] 1080p Latino WEBDL serie completa, descargar Preacher (2018) Tercera Temporada WEB-DL [AMZN] 1080p Latino WEBDL gratis en mega.

Preacher (2018) Tercera Temporada WEB-DL [AMZN] 1080p Latino pelicula full hd, Preacher (2018) Tercera Temporada WEB-DL [AMZN] 1080p Latino mega latino, Preacher (2018) Tercera Temporada WEB-DL [AMZN] 1080p Latino 4k latino, Preacher (2018) Tercera Temporada WEB-DL [AMZN] 1080p Latino pelicula completa, Preacher (2018) Tercera Temporada WEB-DL [AMZN] 1080p Latino descargar gratis, descargar Preacher (2018) Tercera Temporada WEB-DL [AMZN] 1080p Latino pelicula latino, Preacher (2018) Tercera Temporada WEB-DL [AMZN] 1080p Latino 1 link mega, Preacher (2018) Tercera Temporada WEB-DL [AMZN] 1080p Latino 1 link google drive, Preacher (2018) Tercera Temporada WEB-DL [AMZN] 1080p Latino hd 1080p latino.
Comentarios 0