×

¿Problemas para descargar con Mozilla, EDGE? Deshabilita la opción "Abrir vinculos en una pestaña nueva" tal como lo muestra ésta imagen.

Preacher (2017) Segunda Temporada WEB-DL [AMZN] 1080p Latino

542 vistas

Información de Preacher (2017) Segunda Temporada WEB-DL [AMZN] 1080p Latino

Datos de la película

  • Calidad: WEBDL
  • Audio: Español Latino E-AC3 5.1 AMAZON - Ingles E-AC3 5.1 AMAZON
  • Subtitulos: Español Latino SRT
  • Resolución: 1920x1080p
  • Formato: MKV
  • Codec: H.264
  • Encoder: Dracarys
  • Mediainfo: Clic para Mostrar Datos Ver
  • Format                      : Matroska
    Format version              : Version 4
    File size                   : 2.20 GiB
    Duration                    : 44 min 29 s
    Overall bit rate            : 7 063 kb/s
    Movie name                  : CinemaniaHDD.net
    Encoded date                : UTC 2020-02-14 00:05:10
    Writing application         : mkvmerge v38.0.0 ('The Silent Type') 64-bit
    Writing library             : libebml v1.3.9 + libmatroska v1.5.2

    Video
    ID                          : 1
    Format                      : AVC
    Format/Info                 : Advanced Video Codec
    Format profile              : High@L4
    Format settings             : CABAC / 4 Ref Frames
    Format settings, CABAC      : Yes
    Format settings, ReFrames   : 4 frames
    Codec ID                    : V_MPEG4/ISO/AVC
    Duration                    : 44 min 29 s
    Bit rate                    : 5 806 kb/s
    Width                       : 1 920 pixels
    Height                      : 1 080 pixels
    Display aspect ratio        : 16:9
    Frame rate mode             : Constant
    Frame rate                  : 23.976 (24000/1001) FPS
    Color space                 : YUV
    Chroma subsampling          : 4:2:0
    Bit depth                   : 8 bits
    Scan type                   : Progressive
    Bits/(Pixel*Frame)          : 0.117
    Stream size                 : 1.80 GiB (82%)
    Default                     : Yes
    Forced                      : No
    Color range                 : Limited
    Color primaries             : BT.709
    Transfer characteristics    : BT.709
    Matrix coefficients         : BT.709

    Audio #1
    ID                          : 2
    Format                      : E-AC-3
    Format/Info                 : Enhanced AC-3
    Commercial name             : Dolby Digital Plus
    Codec ID                    : A_EAC3
    Duration                    : 44 min 29 s
    Bit rate mode               : Constant
    Bit rate                    : 640 kb/s
    Channel(s)                  : 6 channels
    Channel layout              : L R C LFE Ls Rs
    Sampling rate               : 48.0 kHz
    Frame rate                  : 31.250 FPS (1536 SPF)
    Compression mode            : Lossy
    Stream size                 : 204 MiB (9%)
    Language                    : Spanish
    Service kind                : Complete Main
    Default                     : Yes
    Forced                      : No

    Audio #2
    ID                          : 3
    Format                      : E-AC-3
    Format/Info                 : Enhanced AC-3
    Commercial name             : Dolby Digital Plus
    Codec ID                    : A_EAC3
    Duration                    : 42 min 44 s
    Bit rate mode               : Constant
    Bit rate                    : 640 kb/s
    Channel(s)                  : 6 channels
    Channel layout              : L R C LFE Ls Rs
    Sampling rate               : 48.0 kHz
    Frame rate                  : 31.250 FPS (1536 SPF)
    Compression mode            : Lossy
    Stream size                 : 196 MiB (9%)
    Language                    : English
    Service kind                : Complete Main
    Default                     : No
    Forced                      : No

    Text
    ID                          : 4
    Format                      : UTF-8
    Codec ID                    : S_TEXT/UTF8
    Codec ID/Info               : UTF-8 Plain Text
    Duration                    : 44 min 24 s
    Bit rate                    : 52 b/s
    Count of elements           : 608
    Stream size                 : 17.2 KiB (0%)
    Title                       : Latin American
    Language                    : Spanish
    Default                     : No
    Forced                      : No

  • Peso: 2.20 GiB X Capitulo

Sinopsis

Una mañana cualquiera Jesse Custer, un duro reverendo de Texas, es invadido por una misteriosa entidad celestial mientras se encuentra predicando en la iglesia. Esta entidad, en forma de halo de luz, posee el cuerpo de Custer y, en el proceso, destruye la iglesia del pueblo, matando a la congregación entera.  Sorprendido por este hecho, el predicador descubre que esta criatura misteriosa le brinda un poder inimaginable, La Palabra de Dios, mediante el cual puede hacer que los demás cumplan su voluntad con tan solo verbalizar lo que desea. Después de estos eventos y de un duro trance, Custer descubre que Dios ha abandonado el cielo y ha huído de sus responsabilidades, por lo que pierde la fe.

Custer ve en sí mismo a la única persona capaz de rastrear al Todopoderoso y de hacerle responder por su negligencia en el cumplimiento del deber. Pero no está sólo en su aventura: su ex novia Tulip y un simpático vampiro llamado Cassidy que parece preferir una cerveza a la sangre se unirán al viaje. Mientras, una imparable máquina de matar conocida como el Santo de los Asesinos no les pondrá nada fácil alcanzar su objetivo.

Ficha técnica

Video trailer de la película

Enlaces de descarga

Rip de Bluray

Descargar Preacher (2017) Segunda Temporada WEB-DL [AMZN] 1080p Latino




Aportes de DPeliculasHDmega la pass es:dpeliculashdmega.org Aportes de CinemaniaHD la pass es:cinemaniahdd.com
Guardado en : Drama , Misterio , Sci-Fi & Fantasy , Series

Películas relacionadas

descargar Preacher (2017) Segunda Temporada WEB-DL [AMZN] 1080p Latino WEBDL 1080p gratis, Preacher (2017) Segunda Temporada WEB-DL [AMZN] 1080p Latino WEBDL mega 1 link, Preacher (2017) Segunda Temporada WEB-DL [AMZN] 1080p Latino WEBDL serie completa, descargar Preacher (2017) Segunda Temporada WEB-DL [AMZN] 1080p Latino WEBDL gratis en mega.

Preacher (2017) Segunda Temporada WEB-DL [AMZN] 1080p Latino pelicula full hd, Preacher (2017) Segunda Temporada WEB-DL [AMZN] 1080p Latino mega latino, Preacher (2017) Segunda Temporada WEB-DL [AMZN] 1080p Latino 4k latino, Preacher (2017) Segunda Temporada WEB-DL [AMZN] 1080p Latino pelicula completa, Preacher (2017) Segunda Temporada WEB-DL [AMZN] 1080p Latino descargar gratis, descargar Preacher (2017) Segunda Temporada WEB-DL [AMZN] 1080p Latino pelicula latino, Preacher (2017) Segunda Temporada WEB-DL [AMZN] 1080p Latino 1 link mega, Preacher (2017) Segunda Temporada WEB-DL [AMZN] 1080p Latino 1 link google drive, Preacher (2017) Segunda Temporada WEB-DL [AMZN] 1080p Latino hd 1080p latino.
Comentarios 0