×

¿Problemas para descargar con Mozilla, EDGE? Deshabilita la opción "Abrir vinculos en una pestaña nueva" tal como lo muestra ésta imagen.

Prancer A Christmas Tale (2022) REMUX 1080p Latino

48 vistas

Información de Prancer A Christmas Tale (2022) REMUX 1080p Latino

Datos de la película

  • Calidad: Full 1080p
  • Audio: Español Latino AC3 2.0 WEB-DL - Ingles DTS 5.1 BLURAY
  • Subtitulos: Español Latino PGS - Ingles PGS
  • Resolución: 1920x1080p
  • Formato: MKV
  • Codec: H.264
  • Encoder: Melkor
  • Mediainfo: Clic para Mostrar Datos Ver
  • Prancer A Christmas Tale (2022) REMUX 1080p Latino.mkv
    Format                      : Matroska
    Format version              : Version 4
    File size                   : 29.6 GiB
    Duration                    : 1 h 45 min
    Overall bit rate mode       : Variable
    Overall bit rate            : 40.1 Mb/s
    Movie name                  : Prancer A Christmas Tale (2022) CinemaniaHDD.Net
    Encoded date                : UTC 2023-11-30 09:25:10
    Writing application         : mkvmerge v56.1.0 ('My Friend') 64-bit
    Writing library             : libebml v1.4.2 + libmatroska v1.6.4
    Attachments                 : CINEMANIAHD.png
    Site                        : CinemaniaHDD.Net
    Uploader                    : Melkor

    Video
    ID                          : 1
    ID in the original source m : 4113 (0x1011)
    Format                      : AVC
    Format/Info                 : Advanced Video Codec
    Format profile              : High@L4.1
    Format settings             : CABAC / 4 Ref Frames
    Format settings, CABAC      : Yes
    Format settings, Reference  : 4 frames
    Codec ID                    : V_MPEG4/ISO/AVC
    Duration                    : 1 h 45 min
    Bit rate mode               : Variable
    Bit rate                    : 36.5 Mb/s
    Maximum bit rate            : 39.0 Mb/s
    Width                       : 1 920 pixels
    Height                      : 1 080 pixels
    Display aspect ratio        : 16:9
    Frame rate mode             : Constant
    Frame rate                  : 23.976 (24000/1001) FPS
    Color space                 : YUV
    Chroma subsampling          : 4:2:0
    Bit depth                   : 8 bits
    Scan type                   : Progressive
    Bits/(Pixel*Frame)          : 0.734
    Stream size                 : 26.9 GiB (91%)
    Title                       : REMUX HD1080p [CinemaniaHDD]
    Default                     : Yes
    Forced                      : Yes
    Original source medium      : Blu-ray

    Audio #1
    ID                          : 2
    Format                      : AC-3
    Format/Info                 : Audio Coding 3
    Commercial name             : Dolby Digital
    Codec ID                    : A_AC3
    Duration                    : 1 h 45 min
    Bit rate mode               : Constant
    Bit rate                    : 256 kb/s
    Channel(s)                  : 2 channels
    Channel layout              : L R
    Sampling rate               : 48.0 kHz
    Frame rate                  : 31.250 FPS (1536 SPF)
    Compression mode            : Lossy
    Stream size                 : 193 MiB (1%)
    Title                       : Español Latino [CinemaniaHDD]
    Language                    : Spanish
    Service kind                : Complete Main
    Default                     : Yes
    Forced                      : Yes

    Audio #2
    ID                          : 3
    ID in the original source m : 4352 (0x1100)
    Format                      : DTS XLL
    Format/Info                 : Digital Theater Systems
    Commercial name             : DTS-HD Master Audio
    Codec ID                    : A_DTS
    Duration                    : 1 h 45 min
    Bit rate mode               : Variable
    Bit rate                    : 3 313 kb/s
    Channel(s)                  : 6 channels
    Channel layout              : C L R Ls Rs LFE
    Sampling rate               : 48.0 kHz
    Frame rate                  : 93.750 FPS (512 SPF)
    Bit depth                   : 24 bits
    Compression mode            : Lossless
    Stream size                 : 2.44 GiB (8%)
    Title                       : Ingles [CinemaniaHDD]
    Language                    : English
    Default                     : No
    Forced                      : No
    Original source medium      : Blu-ray

    Text #1
    ID                          : 4
    ID in the original source m : 4609 (0x1201)
    Format                      : PGS
    Muxing mode                 : zlib
    Codec ID                    : S_HDMV/PGS
    Codec ID/Info               : Picture based subtitle format used on BDs/HD-DVDs
    Duration                    : 1 h 44 min
    Bit rate                    : 39.1 kb/s
    Count of elements           : 2944
    Stream size                 : 29.1 MiB (0%)
    Title                       : Español-PGS [CinemaniaHDD]
    Language                    : Spanish
    Default                     : No
    Forced                      : No
    Original source medium      : Blu-ray

    Text #2
    ID                          : 5
    ID in the original source m : 4608 (0x1200)
    Format                      : PGS
    Muxing mode                 : zlib
    Codec ID                    : S_HDMV/PGS
    Codec ID/Info               : Picture based subtitle format used on BDs/HD-DVDs
    Duration                    : 1 h 44 min
    Bit rate                    : 49.6 kb/s
    Count of elements           : 3410
    Stream size                 : 37.1 MiB (0%)
    Title                       : Ingles [CinemaniaHDD]
    Language                    : English
    Default                     : No
    Forced                      : No
    Original source medium      : Blu-ray

    Text #3
    ID                          : 6
    Format                      : UTF-8
    Codec ID                    : S_TEXT/UTF8
    Codec ID/Info               : UTF-8 Plain Text
    Duration                    : 1 h 32 min
    Bit rate                    : 0 b/s
    Count of elements           : 9
    Stream size                 : 160 Bytes (0%)
    Title                       : Forzados-SRT [CinemaniaHDD]
    Language                    : Spanish
    Default                     : Yes
    Forced                      : Yes

    Text #4
    ID                          : 7
    Format                      : UTF-8
    Codec ID                    : S_TEXT/UTF8
    Codec ID/Info               : UTF-8 Plain Text
    Duration                    : 1 h 40 min
    Bit rate                    : 66 b/s
    Count of elements           : 1326
    Stream size                 : 49.1 KiB (0%)
    Title                       : Español-SRT [CinemaniaHDD]
    Language                    : Spanish
    Default                     : No
    Forced                      : No

    Menu
    00:00:00.000                : Chapter 01
    00:04:50.790                : Chapter 02
    00:09:28.859                : Chapter 03
    00:14:03.259                : Chapter 04
    00:19:40.929                : Chapter 05
    00:26:38.346                : Chapter 06
    00:31:28.219                : Chapter 07
    00:35:36.717                : Chapter 08
    00:42:17.117                : Chapter 09
    00:47:17.167                : Chapter 10
    00:54:45.949                : Chapter 11
    01:00:46.851                : Chapter 12
    01:06:16.847                : Chapter 13
    01:10:00.696                : Chapter 14
    01:15:20.641                : Chapter 15
    01:20:52.347                : Chapter 16
    01:25:03.765                : Chapter 17
    01:29:47.799                : Chapter 18
    01:37:00.981                : Chapter 19
    01:41:47.434                : Chapter 20

  • Peso: 29.6 GiB

Sinopsis

Descargar Prancer A Christmas Tale (2022) REMUX 1080p Latino. Gloria, de diez años, y su abuelo Bud, que acaba de enviudar, se hacen amigos de un misterioso reno cuando la familia se reúne para Navidad. Bud llega a creer que Prancer en realidad puede ser mágico, pero Gloria teme que su teoría lo envíe directamente a una casa de retiro.

Ficha técnica

Video trailer de la película

Enlaces de descarga

Rip de Bluray

Descargar Prancer A Christmas Tale (2022) REMUX 1080p Latino




Aportes de DPeliculasHDmega la pass es:dpeliculashdmega.org Aportes de CinemaniaHD la pass es:cinemaniahdd.com Aportes recientes:cinemaniahdd.net
Guardado en : Familia , Fantasía , Remux

Películas relacionadas

  • ¡Patos! (2023) HD 1080p Latino

    ¡Patos! (2023) HD 1080p Latino

    2023
    ¡Patos! (2023) HD 1080p Latino

    1h 23m 2023

    Descargar ¡Patos! (2023) HD 1080p Latino. Después de que una familia de patos migratorios aterriza...

    Director: Guy-Laurent Homsy

    Género: Acción

    Actores: Zeno Robinson

  • ¡Patos! (2023) PLACEBO Full HD 1080p Latino

    ¡Patos! (2023) PLACEBO Full HD 1080p Latino

    2023
    ¡Patos! (2023) PLACEBO Full HD 1080p Latino

    1h 23m 2023

    Descargar ¡Patos! (2023) PLACEBO Full HD 1080p Latino. Después de que una familia de patos migratorios...

    Director: Guy-Laurent Homsy

    Género: Acción

    Actores: Zeno Robinson

  • ¡Patos! (2023) REMUX 1080p Latino

    ¡Patos! (2023) REMUX 1080p Latino

    2023
    ¡Patos! (2023) REMUX 1080p Latino

    1h 23m 2023

    Descargar ¡Patos! (2023) REMUX 1080p Latino. Después de que una familia de patos migratorios aterriza...

    Director: Guy-Laurent Homsy

    Género: Acción

    Actores: Zeno Robinson

descargar Prancer A Christmas Tale (2022) REMUX 1080p Latino Full 1080p 1080p gratis, Prancer A Christmas Tale (2022) REMUX 1080p Latino Full 1080p mega 1 link, Prancer A Christmas Tale (2022) REMUX 1080p Latino Full 1080p pelicula completa, descargar Prancer A Christmas Tale (2022) REMUX 1080p Latino Full 1080p gratis en mega.

Prancer A Christmas Tale (2022) REMUX 1080p Latino pelicula full hd, Prancer A Christmas Tale (2022) REMUX 1080p Latino mega latino, Prancer A Christmas Tale (2022) REMUX 1080p Latino 4k latino, Prancer A Christmas Tale (2022) REMUX 1080p Latino pelicula completa, Prancer A Christmas Tale (2022) REMUX 1080p Latino descargar gratis, descargar Prancer A Christmas Tale (2022) REMUX 1080p Latino pelicula latino, Prancer A Christmas Tale (2022) REMUX 1080p Latino 1 link mega, Prancer A Christmas Tale (2022) REMUX 1080p Latino 1 link google drive, Prancer A Christmas Tale (2022) REMUX 1080p Latino hd 1080p latino.
Comentarios 0