×

¿Problemas para descargar con Mozilla, EDGE? Deshabilita la opción "Abrir vinculos en una pestaña nueva" tal como lo muestra ésta imagen.

Power Rangers (2017) REMUX 1080p Latino – CMHDD

250 vistas

Información de Power Rangers (2017) REMUX 1080p Latino – CMHDD

Datos de la película

  • Calidad: Full 1080p
  • Audio: Español Latino AC3 5.1 BLURAY - Ingles AC3 5.1 BLURAY
  • Subtitulos: Español Latino PGS
  • Resolución: 1920x1080p
  • Formato: MKV
  • Codec: H.264
  • Encoder: Dracarys
  • Mediainfo: Clic para Mostrar Datos Ver
  • Format                      : Matroska
    Format version              : Version 4
    File size                   : 21.8 GiB
    Duration                    : 2 h 3 min
    Overall bit rate mode       : Variable
    Overall bit rate            : 25.2 Mb/s
    Movie name                  : Power Rangers (2017) REMUX 1080p Latino - CMHDD
    Encoded date                : UTC 2021-09-15 02:37:07
    Writing application         : mkvmerge v17.0.0 ('Be Ur Friend') 64-bit
    Writing library             : libebml v1.3.5 + libmatroska v1.4.8

    Video
    ID                          : 1
    Format                      : AVC
    Format/Info                 : Advanced Video Codec
    Format profile              : High@L4.1
    Format settings             : CABAC / 4 Ref Frames
    Format settings, CABAC      : Yes
    Format settings, Reference  : 4 frames
    Codec ID                    : V_MPEG4/ISO/AVC
    Duration                    : 2 h 3 min
    Bit rate mode               : Variable
    Bit rate                    : 19.0 Mb/s
    Maximum bit rate            : 37.0 Mb/s
    Width                       : 1 920 pixels
    Height                      : 1 080 pixels
    Display aspect ratio        : 16:9
    Frame rate mode             : Constant
    Frame rate                  : 23.976 (23976/1000) FPS
    Original frame rate         : 23.976 (24000/1001) FPS
    Color space                 : YUV
    Chroma subsampling          : 4:2:0
    Bit depth                   : 8 bits
    Scan type                   : Progressive
    Bits/(Pixel*Frame)          : 0.382
    Stream size                 : 16.4 GiB (75%)
    Default                     : Yes
    Forced                      : No

    Audio #1
    ID                          : 2
    Format                      : MLP FBA 16-ch
    Format/Info                 : Meridian Lossless Packing FBA with 16-channel presentation
    Commercial name             : Dolby TrueHD with Dolby Atmos
    Codec ID                    : A_TRUEHD
    Duration                    : 2 h 3 min
    Bit rate mode               : Variable
    Bit rate                    : 4 881 kb/s
    Maximum bit rate            : 7 578 kb/s
    Channel(s)                  : 8 channels
    Channel layout              : L R C LFE Ls Rs Lb Rb
    Sampling rate               : 48.0 kHz
    Frame rate                  : 1 200.000 FPS (40 SPF)
    Compression mode            : Lossless
    Delay relative to video     : 1 ms
    Stream size                 : 4.23 GiB (19%)
    Language                    : English
    Default                     : No
    Forced                      : No
    Number of dynamic objects   : 15
    Bed channel count           : 1 channel
    Bed channel configuration   : LFE

    Audio #2
    ID                          : 3
    Format                      : AC-3
    Format/Info                 : Audio Coding 3
    Commercial name             : Dolby Digital
    Format settings             : Dolby Surround EX
    Codec ID                    : A_AC3
    Duration                    : 2 h 3 min
    Bit rate mode               : Constant
    Bit rate                    : 640 kb/s
    Channel(s)                  : 6 channels
    Channel layout              : L R C LFE Ls Rs
    Sampling rate               : 48.0 kHz
    Frame rate                  : 31.250 FPS (1536 SPF)
    Compression mode            : Lossy
    Delay relative to video     : 1 ms
    Stream size                 : 568 MiB (3%)
    Language                    : English
    Service kind                : Complete Main
    Default                     : No
    Forced                      : No

    Audio #3
    ID                          : 4
    Format                      : AC-3
    Format/Info                 : Audio Coding 3
    Commercial name             : Dolby Digital
    Codec ID                    : A_AC3
    Duration                    : 2 h 3 min
    Bit rate mode               : Constant
    Bit rate                    : 640 kb/s
    Channel(s)                  : 6 channels
    Channel layout              : L R C LFE Ls Rs
    Sampling rate               : 48.0 kHz
    Frame rate                  : 31.250 FPS (1536 SPF)
    Compression mode            : Lossy
    Delay relative to video     : 23 ms
    Stream size                 : 568 MiB (3%)
    Language                    : Spanish
    Service kind                : Complete Main
    Default                     : Yes
    Forced                      : No

    Text
    ID                          : 5
    Format                      : PGS
    Muxing mode                 : zlib
    Codec ID                    : S_HDMV/PGS
    Codec ID/Info               : Picture based subtitle format used on BDs/HD-DVDs
    Duration                    : 1 h 55 min
    Bit rate                    : 32.4 kb/s
    Count of elements           : 3196
    Stream size                 : 26.7 MiB (0%)
    Language                    : Spanish
    Default                     : No
    Forced                      : No

    Menu
    00:00:00.000                : en:Chapter 1
    00:07:00.253                : en:Chapter 2
    00:13:45.241                : en:Chapter 3
    00:18:57.719                : en:Chapter 4
    00:25:49.589                : en:Chapter 5
    00:31:17.125                : en:Chapter 6
    00:38:24.760                : en:Chapter 7
    00:50:49.045                : en:Chapter 8
    01:00:00.221                : en:Chapter 9
    01:08:09.877                : en:Chapter 10
    01:17:06.746                : en:Chapter 11
    01:24:41.743                : en:Chapter 12
    01:30:45.022                : en:Chapter 13
    01:34:18.861                : en:Chapter 14
    01:44:32.933                : en:Chapter 15
    01:51:46.157                : en:Chapter 16

  • Peso: 21.8 GiB

Sinopsis

La película sigue a cinco jóvenes predestinados a convertirse en algo extraordinario cuando descubren que tanto su modesto poblado, Angel Grove, como el resto del mundo, están al borde de la aniquilación por una amenaza alienígena. Nuestros héroes descubren rápidamente que son los únicos que pueden salvar al planeta, pero para lograrlo tendrán que superar problemas de la vida real y unirse bajo el nombre de Power Rangers antes de que sea demasiado tarde.

Ficha técnica

Video trailer de la película

Enlaces de descarga

Rip de Bluray

Descargar Power Rangers (2017) REMUX 1080p Latino – CMHDD


Aportes de DPeliculasHDmega la pass es:dpeliculashdmega.org Aportes de CinemaniaHD la pass es:cinemaniahdd.com
Guardado en : Acción , Aventura , Ciencia ficción

Películas relacionadas

  • M3GAN (2023) AMZN WEB-DL 4K UHD HDR Latino

    M3GAN (2023) AMZN WEB-DL 4K UHD HDR Latino

    2022
    M3GAN (2023) AMZN WEB-DL 4K UHD HDR Latino

    1h 42m 2022

    Descargar M3GAN (2023) AMZN WEB-DL 4K UHD HDR Latino. Cuando Gemma se convierte en la cuidadora de su...

    Director: Stephen W. Moore

    Género: 4K HDR

    Actores: Violet McGraw

  • M3GAN (2022) MA WEB-DL 1080p Latino

    M3GAN (2022) MA WEB-DL 1080p Latino

    2022
    M3GAN (2022) MA WEB-DL 1080p Latino

    1h 42m 2022

    Descargar M3GAN (2022) MA WEB-DL 1080p Latino. Cuando Gemma se convierte en la cuidadora de su sobrina...

    Director: Stephen W. Moore

    Género: Ciencia ficción

    Actores: Violet McGraw

  • Mar de sangre (2022) WEB-DL 1080p Latino

    Mar de sangre (2022) WEB-DL 1080p Latino

    2022
    Mar de sangre (2022) WEB-DL 1080p Latino

    1h 27m 2022

    Descargar Mar de sangre (2022) WEB-DL 1080p Latino. Un grupo de amigos que disfrutan de un fin de semana...

    Director: James Nunn

    Género: Acción

    Actores: Thomas Michael Flynn

  • Noche sin paz (2022) PLACEBO Full HD 1080p Latino

    Noche sin paz (2022) PLACEBO Full HD 1080p Latino

    2022
    Noche sin paz (2022) PLACEBO Full HD 1080p Latino

    1h 41m 2022

    Descargar Noche sin paz (2022) PLACEBO Full HD 1080p Latino. Cuando un equipo de mercenarios irrumpe...

    Director: Tyshana Hobson

    Género: Acción

    Actores: Yoon Cha-Lee

  • Noche sin paz (2022) HD 1080p Latino

    Noche sin paz (2022) HD 1080p Latino

    2022
    Noche sin paz (2022) HD 1080p Latino

    1h 41m 2022

    Descargar Noche sin paz (2022) HD 1080p Latino. Cuando un equipo de mercenarios irrumpe en Nochebuena...

    Director: Tyshana Hobson

    Género: Acción

    Actores: Yoon Cha-Lee

descargar Power Rangers (2017) REMUX 1080p Latino – CMHDD Full 1080p 1080p gratis, Power Rangers (2017) REMUX 1080p Latino – CMHDD Full 1080p mega 1 link, Power Rangers (2017) REMUX 1080p Latino – CMHDD Full 1080p pelicula completa, descargar Power Rangers (2017) REMUX 1080p Latino – CMHDD Full 1080p gratis en mega.

Power Rangers (2017) REMUX 1080p Latino – CMHDD pelicula full hd, Power Rangers (2017) REMUX 1080p Latino – CMHDD mega latino, Power Rangers (2017) REMUX 1080p Latino – CMHDD 4k latino, Power Rangers (2017) REMUX 1080p Latino – CMHDD pelicula completa, Power Rangers (2017) REMUX 1080p Latino – CMHDD descargar gratis, descargar Power Rangers (2017) REMUX 1080p Latino – CMHDD pelicula latino, Power Rangers (2017) REMUX 1080p Latino – CMHDD 1 link mega, Power Rangers (2017) REMUX 1080p Latino – CMHDD 1 link google drive, Power Rangers (2017) REMUX 1080p Latino – CMHDD hd 1080p latino.