×

¿Problemas para descargar con Mozilla, EDGE? Deshabilita la opción "Abrir vinculos en una pestaña nueva" tal como lo muestra ésta imagen.

Power Book IV: Force (2023) Segunda Temporada AMZN WEB-DL 1080p Latino

306 vistas

Información de Power Book IV: Force (2023) Segunda Temporada AMZN WEB-DL 1080p Latino

Datos de la película

  • Calidad: 1080p
  • Audio: Español Latino AC3 5.1 WEB-DL - Ingles AC3 5.1 WEB-DL
  • Subtitulos: Español Latino SRT - Ingles SRT
  • Resolución: 1920x1080
  • Formato: MKV
  • Codec: H.264
  • Encoder: cinemaniahdd
  • Mediainfo: Clic para Mostrar Datos Ver
  • Power Book IV. Force T02E01 AMZN WEB-DL 1080p Latino [CNMNHDD].mkv
    Format                      : Matroska
    Format version              : Version 4
    File size                   : 4.43 GiB
    Duration                    : 59 min 28 s
    Overall bit rate            : 10.7 Mb/s
    Movie name                  : Power Book IV. Force S02E01 - Tommy's Back [1080p] - CinemaniaHDD.Net
    Encoded date                : UTC 2023-09-01 04:44:10
    Writing application         : mkvmerge v56.1.0 ('My Friend') 64-bit
    Writing library             : libebml v1.4.2 + libmatroska v1.6.4

    Video
    ID                          : 1
    Format                      : AVC
    Format/Info                 : Advanced Video Codec
    Format profile              : High@L4
    Format settings             : CABAC / 4 Ref Frames
    Format settings, CABAC      : Yes
    Format settings, Reference  : 4 frames
    Codec ID                    : V_MPEG4/ISO/AVC
    Duration                    : 59 min 28 s
    Bit rate mode               : Constant
    Bit rate                    : 8 748 kb/s
    Nominal bit rate            : 10 000 kb/s
    Width                       : 1 920 pixels
    Height                      : 1 080 pixels
    Display aspect ratio        : 16:9
    Frame rate mode             : Constant
    Frame rate                  : 23.976 (24000/1001) FPS
    Color space                 : YUV
    Chroma subsampling          : 4:2:0
    Bit depth                   : 8 bits
    Scan type                   : Progressive
    Bits/(Pixel*Frame)          : 0.176
    Stream size                 : 3.63 GiB (82%)
    Title                       : CinemaniaHDD
    Default                     : Yes
    Forced                      : No
    Color range                 : Limited
    Color primaries             : BT.709
    Transfer characteristics    : BT.709
    Matrix coefficients         : BT.709

    Audio #1
    ID                          : 2
    Format                      : AC-3
    Format/Info                 : Audio Coding 3
    Commercial name             : Dolby Digital
    Codec ID                    : A_AC3
    Duration                    : 59 min 28 s
    Bit rate mode               : Constant
    Bit rate                    : 640 kb/s
    Channel(s)                  : 6 channels
    Channel layout              : L R C LFE Ls Rs
    Sampling rate               : 48.0 kHz
    Frame rate                  : 31.250 FPS (1536 SPF)
    Compression mode            : Lossy
    Stream size                 : 272 MiB (6%)
    Title                       : Español Latino [CinemaniaHDD]
    Language                    : Spanish
    Service kind                : Complete Main
    Default                     : Yes
    Forced                      : No

    Audio #2
    ID                          : 3
    Format                      : E-AC-3
    Format/Info                 : Enhanced AC-3
    Commercial name             : Dolby Digital Plus
    Codec ID                    : A_EAC3
    Duration                    : 59 min 28 s
    Bit rate mode               : Constant
    Bit rate                    : 640 kb/s
    Channel(s)                  : 6 channels
    Channel layout              : L R C LFE Ls Rs
    Sampling rate               : 48.0 kHz
    Frame rate                  : 31.250 FPS (1536 SPF)
    Compression mode            : Lossy
    Stream size                 : 272 MiB (6%)
    Title                       : Español Latino / E-AC3 [CinemaniaHDD]
    Language                    : Spanish
    Service kind                : Complete Main
    Default                     : No
    Forced                      : No

    Audio #3
    ID                          : 4
    Format                      : E-AC-3
    Format/Info                 : Enhanced AC-3
    Commercial name             : Dolby Digital Plus
    Codec ID                    : A_EAC3
    Duration                    : 59 min 28 s
    Bit rate mode               : Constant
    Bit rate                    : 640 kb/s
    Channel(s)                  : 6 channels
    Channel layout              : L R C LFE Ls Rs
    Sampling rate               : 48.0 kHz
    Frame rate                  : 31.250 FPS (1536 SPF)
    Compression mode            : Lossy
    Stream size                 : 272 MiB (6%)
    Title                       : Inglés [CinemaniaHDD]
    Language                    : English
    Service kind                : Complete Main
    Default                     : No
    Forced                      : No

    Text #1
    ID                          : 5
    Format                      : UTF-8
    Codec ID                    : S_TEXT/UTF8
    Codec ID/Info               : UTF-8 Plain Text
    Duration                    : 56 min 59 s
    Bit rate                    : 76 b/s
    Count of elements           : 973
    Stream size                 : 31.9 KiB (0%)
    Title                       : Español Latino [CinemaniaHDD]
    Language                    : Spanish
    Default                     : No
    Forced                      : No

    Text #2
    ID                          : 6
    Format                      : UTF-8
    Codec ID                    : S_TEXT/UTF8
    Codec ID/Info               : UTF-8 Plain Text
    Duration                    : 58 min 33 s
    Bit rate                    : 91 b/s
    Count of elements           : 1303
    Stream size                 : 39.4 KiB (0%)
    Title                       : Inglés [CinemaniaHDD]
    Language                    : English
    Default                     : No
    Forced                      : No

     

  • Peso: 4.43 GiB Aprox ---- 45 GiB in 10 Chapters.

Sinopsis

Tommy Egan corta todos los lazos y deja atrás Nueva York para siempre, cuando llega a Chicago se propone convertirse en el mayor traficante de drogas que la Segunda Ciudad haya visto.

Ficha técnica

Video trailer de la película

Enlaces de descarga

Rip de Bluray

Descargar Power Book IV: Force (2023) Segunda Temporada AMZN WEB-DL 1080p Latino




Aportes de DPeliculasHDmega la pass es:dpeliculashdmega.org Aportes de CinemaniaHD la pass es:cinemaniahdd.com Aportes recientes:cinemaniahdd.net
Guardado en : Crimen , Drama , Series

Películas relacionadas

  • Cómo robar un millón (1966) REMUX 1080p Latino-CMHDD

    Cómo robar un millón (1966) REMUX 1080p Latino-CMHDD

    1966
    Cómo robar un millón (1966) REMUX 1080p Latino-CMHDD

    2h 3m 1966

    Descargar Cómo robar un millón (1966) REMUX 1080p Latino-CMHDD. El padre de Nicole, un legendario coleccionista...

    Director: William Wyler

    Género: Comedia

    Actores: Roger Tréville

  • Milagros Inesperados (1999) 1080p Latino-CMHDD

    Milagros Inesperados (1999) 1080p Latino-CMHDD

    1999
    Milagros Inesperados (1999) 1080p Latino-CMHDD

    3h 9m 1999

    Descargar Milagros Inesperados (1999) 1080p Latino-CMHDD. En el sur de los Estados Unidos, en plena Depresión,...

    Director: Susan Malerstein

    Género: Crimen

    Actores: William Sadler

descargar Power Book IV: Force (2023) Segunda Temporada AMZN WEB-DL 1080p Latino 1080p 1080p gratis, Power Book IV: Force (2023) Segunda Temporada AMZN WEB-DL 1080p Latino 1080p mega 1 link, Power Book IV: Force (2023) Segunda Temporada AMZN WEB-DL 1080p Latino 1080p serie completa, descargar Power Book IV: Force (2023) Segunda Temporada AMZN WEB-DL 1080p Latino 1080p gratis en mega.

Power Book IV: Force (2023) Segunda Temporada AMZN WEB-DL 1080p Latino pelicula full hd, Power Book IV: Force (2023) Segunda Temporada AMZN WEB-DL 1080p Latino mega latino, Power Book IV: Force (2023) Segunda Temporada AMZN WEB-DL 1080p Latino 4k latino, Power Book IV: Force (2023) Segunda Temporada AMZN WEB-DL 1080p Latino pelicula completa, Power Book IV: Force (2023) Segunda Temporada AMZN WEB-DL 1080p Latino descargar gratis, descargar Power Book IV: Force (2023) Segunda Temporada AMZN WEB-DL 1080p Latino pelicula latino, Power Book IV: Force (2023) Segunda Temporada AMZN WEB-DL 1080p Latino 1 link mega, Power Book IV: Force (2023) Segunda Temporada AMZN WEB-DL 1080p Latino 1 link google drive, Power Book IV: Force (2023) Segunda Temporada AMZN WEB-DL 1080p Latino hd 1080p latino.
Comentarios 0