×

¿Problemas para descargar con Mozilla, EDGE? Deshabilita la opción "Abrir vinculos en una pestaña nueva" tal como lo muestra ésta imagen.

Power Book III: Raising Kanan (2023) Tercera Temporada AMZN WEB-DL 1080p Latino

316 vistas

Información de Power Book III: Raising Kanan (2023) Tercera Temporada AMZN WEB-DL 1080p Latino

Datos de la película

  • Calidad: 1080p
  • Audio: Español Latino AC3 5.1 WEB-DL - Ingles AC3 5.1 WEB-DL
  • Subtitulos: Español Latino SRT- FORZADOS SRT
  • Resolución: 1920x1080
  • Formato: MKV
  • Codec: H.264
  • Encoder: cinemaniahdd
  • Mediainfo: Clic para Mostrar Datos Ver
  • Power Book III. Raising Kanan T03E01 AMZN WEB-DL 1080p Latino [CNMNHDD].mkv
    Format                      : Matroska
    Format version              : Version 4
    File size                   : 3.12 GiB
    Duration                    : 56 min 5 s
    Overall bit rate            : 7 954 kb/s
    Movie name                  : Power Book III. Raising Kanan S03E01 - Home Sweet Home [1080p] - CinemaniaHDD.Net
    Encoded date                : UTC 2024-05-12 19:36:32
    Writing application         : mkvmerge v63.0.0 ('Everything') 32-bit
    Writing library             : libebml v1.4.2 + libmatroska v1.6.4

    Video
    ID                          : 1
    Format                      : AVC
    Format/Info                 : Advanced Video Codec
    Format profile              : High@L4
    Format settings             : CABAC / 4 Ref Frames
    Format settings, CABAC      : Yes
    Format settings, Reference  : 4 frames
    Codec ID                    : V_MPEG4/ISO/AVC
    Duration                    : 56 min 5 s
    Bit rate mode               : Constant
    Bit rate                    : 6 672 kb/s
    Nominal bit rate            : 10 000 kb/s
    Width                       : 1 920 pixels
    Height                      : 1 080 pixels
    Display aspect ratio        : 16:9
    Frame rate mode             : Constant
    Frame rate                  : 23.976 (24000/1001) FPS
    Color space                 : YUV
    Chroma subsampling          : 4:2:0
    Bit depth                   : 8 bits
    Scan type                   : Progressive
    Bits/(Pixel*Frame)          : 0.134
    Stream size                 : 2.61 GiB (84%)
    Title                       : CinemaniaHDD.Net
    Default                     : Yes
    Forced                      : No
    Color range                 : Limited
    Color primaries             : BT.709
    Transfer characteristics    : BT.709
    Matrix coefficients         : BT.709

    Audio #1
    ID                          : 2
    Format                      : E-AC-3
    Format/Info                 : Enhanced AC-3
    Commercial name             : Dolby Digital Plus
    Codec ID                    : A_EAC3
    Duration                    : 56 min 5 s
    Bit rate mode               : Constant
    Bit rate                    : 640 kb/s
    Channel(s)                  : 6 channels
    Channel layout              : L R C LFE Ls Rs
    Sampling rate               : 48.0 kHz
    Frame rate                  : 31.250 FPS (1536 SPF)
    Compression mode            : Lossy
    Stream size                 : 257 MiB (8%)
    Title                       : Español Latino (E-AC3) [CinemaniaHDD]
    Language                    : Spanish
    Service kind                : Complete Main
    Default                     : Yes
    Forced                      : No

    Audio #2
    ID                          : 3
    Format                      : E-AC-3
    Format/Info                 : Enhanced AC-3
    Commercial name             : Dolby Digital Plus
    Codec ID                    : A_EAC3
    Duration                    : 56 min 5 s
    Bit rate mode               : Constant
    Bit rate                    : 640 kb/s
    Channel(s)                  : 6 channels
    Channel layout              : L R C LFE Ls Rs
    Sampling rate               : 48.0 kHz
    Frame rate                  : 31.250 FPS (1536 SPF)
    Compression mode            : Lossy
    Stream size                 : 257 MiB (8%)
    Title                       : Inglés (Original) [CinemaniaHDD]
    Language                    : English
    Service kind                : Complete Main
    Default                     : No
    Forced                      : No

    Text #1
    ID                          : 4
    Format                      : UTF-8
    Codec ID                    : S_TEXT/UTF8
    Codec ID/Info               : UTF-8 Plain Text
    Duration                    : 25 min 28 s
    Bit rate                    : 0 b/s
    Count of elements           : 2
    Stream size                 : 75.0 Bytes (0%)
    Title                       : Forzados [CinemaniaHDD]
    Language                    : Spanish
    Default                     : Yes
    Forced                      : Yes

    Text #2
    ID                          : 5
    Format                      : UTF-8
    Codec ID                    : S_TEXT/UTF8
    Codec ID/Info               : UTF-8 Plain Text
    Duration                    : 55 min 23 s
    Bit rate                    : 58 b/s
    Count of elements           : 760
    Stream size                 : 23.9 KiB (0%)
    Title                       : Español Latino [CinemaniaHDD]
    Language                    : English
    Default                     : No
    Forced                      : No

    Menu
    00:00:00.000                : en:Scene 1
    00:00:35.000                : en:Scene 2
    00:01:10.000                : en:Scene 3
    00:01:43.000                : en:Scene 4
    00:02:05.000                : en:Scene 5
    00:05:05.000                : en:Scene 6
    00:05:27.000                : en:Scene 7
    00:06:23.000                : en:Scene 8
    00:07:18.000                : en:Scene 9
    00:08:00.000                : en:Scene 10
    00:09:16.000                : en:Scene 11
    00:09:51.000                : en:Scene 12
    00:10:41.000                : en:Scene 13
    00:11:42.000                : en:Scene 14
    00:12:12.000                : en:Scene 15
    00:12:49.000                : en:Scene 16
    00:14:44.000                : en:Scene 17
    00:15:02.000                : en:Scene 18
    00:15:19.000                : en:Scene 19
    00:16:26.000                : en:Scene 20
    00:17:25.000                : en:Scene 21
    00:17:59.000                : en:Scene 22
    00:18:14.000                : en:Scene 23
    00:19:48.000                : en:Scene 24
    00:20:39.000                : en:Scene 25
    00:21:41.000                : en:Scene 26
    00:22:11.000                : en:Scene 27
    00:23:45.000                : en:Scene 28
    00:25:00.000                : en:Scene 29
    00:26:56.000                : en:Scene 30
    00:28:38.000                : en:Scene 31
    00:29:49.000                : en:Scene 32
    00:30:47.000                : en:Scene 33
    00:31:36.000                : en:Scene 34
    00:32:37.000                : en:Scene 35
    00:34:20.000                : en:Scene 36
    00:36:00.000                : en:Scene 37
    00:36:53.000                : en:Scene 38
    00:38:55.000                : en:Scene 39
    00:40:03.000                : en:Scene 40
    00:41:02.000                : en:Scene 41
    00:41:28.000                : en:Scene 42
    00:43:20.000                : en:Scene 43
    00:44:11.000                : en:Scene 44
    00:44:38.000                : en:Scene 45
    00:44:53.000                : en:Scene 46
    00:46:50.000                : en:Scene 47
    00:47:30.000                : en:Scene 48
    00:47:53.000                : en:Scene 49
    00:49:10.000                : en:Scene 50
    00:49:34.000                : en:Scene 51
    00:52:52.000                : en:Scene 52
    00:54:10.000                : en:Scene 53
    00:54:43.000                : en:Scene 54

     

     

  • Peso: 3.12 GiB Aprox ---- 31 GiB in 10 Chapters.

Sinopsis

Situada al Sur de Jamaica, en Queens, en 1991, «Raising Kanan» es una precuela de la franquicia original «Power». Este drama familiar trata del cambio de edad de Kanan Stark, un distribuidor de cocaína con una red de vendedores en la Ciudad de Nueva York.

Ficha técnica

  • Titulo original: Power Book III: Raising Kanan
  • Fecha de lanzamiento: 18-07-2021 (US)
  • Director: Sascha Penn
  • Género: Drama, Series

Video trailer de la película

Enlaces de descarga

Rip de Bluray

Descargar Power Book III: Raising Kanan (2023) Tercera Temporada AMZN WEB-DL 1080p Latino




Aportes de DPeliculasHDmega la pass es:dpeliculashdmega.org Aportes de CinemaniaHD la pass es:cinemaniahdd.com Aportes recientes:cinemaniahdd.net
Guardado en : Drama , Series

Películas relacionadas

descargar Power Book III: Raising Kanan (2023) Tercera Temporada AMZN WEB-DL 1080p Latino 1080p 1080p gratis, Power Book III: Raising Kanan (2023) Tercera Temporada AMZN WEB-DL 1080p Latino 1080p mega 1 link, Power Book III: Raising Kanan (2023) Tercera Temporada AMZN WEB-DL 1080p Latino 1080p serie completa, descargar Power Book III: Raising Kanan (2023) Tercera Temporada AMZN WEB-DL 1080p Latino 1080p gratis en mega.

Power Book III: Raising Kanan (2023) Tercera Temporada AMZN WEB-DL 1080p Latino pelicula full hd, Power Book III: Raising Kanan (2023) Tercera Temporada AMZN WEB-DL 1080p Latino mega latino, Power Book III: Raising Kanan (2023) Tercera Temporada AMZN WEB-DL 1080p Latino 4k latino, Power Book III: Raising Kanan (2023) Tercera Temporada AMZN WEB-DL 1080p Latino pelicula completa, Power Book III: Raising Kanan (2023) Tercera Temporada AMZN WEB-DL 1080p Latino descargar gratis, descargar Power Book III: Raising Kanan (2023) Tercera Temporada AMZN WEB-DL 1080p Latino pelicula latino, Power Book III: Raising Kanan (2023) Tercera Temporada AMZN WEB-DL 1080p Latino 1 link mega, Power Book III: Raising Kanan (2023) Tercera Temporada AMZN WEB-DL 1080p Latino 1 link google drive, Power Book III: Raising Kanan (2023) Tercera Temporada AMZN WEB-DL 1080p Latino hd 1080p latino.
Comentarios 0