×

¿Problemas para descargar con Mozilla, EDGE? Deshabilita la opción "Abrir vinculos en una pestaña nueva" tal como lo muestra ésta imagen.

Power Book III: Raising Kanan (2023) Tercera Temporada AMZN WEB-DL 1080p Latino

125 vistas

Información de Power Book III: Raising Kanan (2023) Tercera Temporada AMZN WEB-DL 1080p Latino

Datos de la película

  • Calidad: 1080p
  • Audio: Español Latino AC3 5.1 WEB-DL - Ingles AC3 5.1 WEB-DL
  • Subtitulos: Español Latino SRT- FORZADOS SRT
  • Resolución: 1920x1080
  • Formato: MKV
  • Codec: H.264
  • Encoder: cinemaniahdd
  • Mediainfo: Clic para Mostrar Datos Ver
  • Power Book III Raising Kanan T03E01 AMZN WEB-DL 1080p Latino [CNMNHDD].mkv
    Format                      : Matroska
    Format version              : Version 4
    File size                   : 4.12 GiB
    Duration                    : 56 min 43 s
    Overall bit rate            : 10.4 Mb/s
    Movie name                  : Power Book III Raising Kanan S03E01 - Home Sweet Home [1080p] - CinemaniaHDD.Net
    Encoded date                : UTC 2023-12-03 20:53:38
    Writing application         : mkvmerge v56.1.0 ('My Friend') 64-bit
    Writing library             : libebml v1.4.2 + libmatroska v1.6.4

    Video
    ID                          : 1
    Format                      : AVC
    Format/Info                 : Advanced Video Codec
    Format profile              : High@L4
    Format settings             : CABAC / 4 Ref Frames
    Format settings, CABAC      : Yes
    Format settings, Reference  : 4 frames
    Codec ID                    : V_MPEG4/ISO/AVC
    Duration                    : 56 min 43 s
    Bit rate mode               : Constant
    Bit rate                    : 8 477 kb/s
    Nominal bit rate            : 10 000 kb/s
    Width                       : 1 920 pixels
    Height                      : 1 080 pixels
    Display aspect ratio        : 16:9
    Frame rate mode             : Constant
    Frame rate                  : 23.976 (24000/1001) FPS
    Color space                 : YUV
    Chroma subsampling          : 4:2:0
    Bit depth                   : 8 bits
    Scan type                   : Progressive
    Bits/(Pixel*Frame)          : 0.171
    Stream size                 : 3.36 GiB (82%)
    Title                       : CinemaniaHDD
    Default                     : Yes
    Forced                      : No
    Color range                 : Limited
    Color primaries             : BT.709
    Transfer characteristics    : BT.709
    Matrix coefficients         : BT.709

    Audio #1
    ID                          : 2
    Format                      : AC-3
    Format/Info                 : Audio Coding 3
    Commercial name             : Dolby Digital
    Codec ID                    : A_AC3
    Duration                    : 56 min 43 s
    Bit rate mode               : Constant
    Bit rate                    : 640 kb/s
    Channel(s)                  : 6 channels
    Channel layout              : L R C LFE Ls Rs
    Sampling rate               : 48.0 kHz
    Frame rate                  : 31.250 FPS (1536 SPF)
    Compression mode            : Lossy
    Stream size                 : 260 MiB (6%)
    Title                       : Español Latino [CinemaniaHDD]
    Language                    : Spanish
    Service kind                : Complete Main
    Default                     : Yes
    Forced                      : No

    Audio #2
    ID                          : 3
    Format                      : E-AC-3
    Format/Info                 : Enhanced AC-3
    Commercial name             : Dolby Digital Plus
    Codec ID                    : A_EAC3
    Duration                    : 56 min 43 s
    Bit rate mode               : Constant
    Bit rate                    : 640 kb/s
    Channel(s)                  : 6 channels
    Channel layout              : L R C LFE Ls Rs
    Sampling rate               : 48.0 kHz
    Frame rate                  : 31.250 FPS (1536 SPF)
    Compression mode            : Lossy
    Stream size                 : 260 MiB (6%)
    Title                       : Español Latino / E-AC3 [CinemaniaHDD]
    Language                    : Spanish
    Service kind                : Complete Main
    Default                     : No
    Forced                      : No

    Audio #3
    ID                          : 4
    Format                      : E-AC-3
    Format/Info                 : Enhanced AC-3
    Commercial name             : Dolby Digital Plus
    Codec ID                    : A_EAC3
    Duration                    : 56 min 43 s
    Bit rate mode               : Constant
    Bit rate                    : 640 kb/s
    Channel(s)                  : 6 channels
    Channel layout              : L R C LFE Ls Rs
    Sampling rate               : 48.0 kHz
    Frame rate                  : 31.250 FPS (1536 SPF)
    Compression mode            : Lossy
    Stream size                 : 260 MiB (6%)
    Title                       : Inglés [CinemaniaHDD]
    Language                    : English
    Service kind                : Complete Main
    Default                     : No
    Forced                      : No

    Text #1
    ID                          : 5
    Format                      : UTF-8
    Codec ID                    : S_TEXT/UTF8
    Codec ID/Info               : UTF-8 Plain Text
    Duration                    : 2 s 544 ms
    Bit rate                    : 59 b/s
    Count of elements           : 1
    Stream size                 : 19.0 Bytes (0%)
    Title                       : Forzados [CinemaniaHDD]
    Language                    : Spanish
    Default                     : Yes
    Forced                      : Yes

    Text #2
    ID                          : 6
    Format                      : UTF-8
    Codec ID                    : S_TEXT/UTF8
    Codec ID/Info               : UTF-8 Plain Text
    Duration                    : 54 min 12 s
    Bit rate                    : 63 b/s
    Count of elements           : 780
    Stream size                 : 25.1 KiB (0%)
    Title                       : Español Latino [CinemaniaHDD]
    Language                    : Spanish
    Default                     : No
    Forced                      : No

    Text #3
    ID                          : 7
    Format                      : UTF-8
    Codec ID                    : S_TEXT/UTF8
    Codec ID/Info               : UTF-8 Plain Text
    Duration                    : 55 min 48 s
    Bit rate                    : 78 b/s
    Count of elements           : 1080
    Stream size                 : 32.1 KiB (0%)
    Title                       : Inglés [CinemaniaHDD]
    Language                    : English
    Default                     : No
    Forced                      : No

     

  • Peso: 4.12 GiB Aprox ---- 39 GiB in 10 Chapters.

Sinopsis

Situada al Sur de Jamaica, en Queens, en 1991, «Raising Kanan» es una precuela de la franquicia original «Power». Este drama familiar trata del cambio de edad de Kanan Stark, un distribuidor de cocaína con una red de vendedores en la Ciudad de Nueva York.

Ficha técnica

  • Titulo original: Power Book III: Raising Kanan
  • Fecha de lanzamiento: 18-07-2021 (US)
  • Director: Sascha Penn
  • Género: Drama, Series

Video trailer de la película

Enlaces de descarga

Rip de Bluray

Descargar Power Book III: Raising Kanan (2023) Tercera Temporada AMZN WEB-DL 1080p Latino




Aportes de DPeliculasHDmega la pass es:dpeliculashdmega.org Aportes de CinemaniaHD la pass es:cinemaniahdd.com Aportes recientes:cinemaniahdd.net
Guardado en : Drama , Series

Películas relacionadas

descargar Power Book III: Raising Kanan (2023) Tercera Temporada AMZN WEB-DL 1080p Latino 1080p 1080p gratis, Power Book III: Raising Kanan (2023) Tercera Temporada AMZN WEB-DL 1080p Latino 1080p mega 1 link, Power Book III: Raising Kanan (2023) Tercera Temporada AMZN WEB-DL 1080p Latino 1080p serie completa, descargar Power Book III: Raising Kanan (2023) Tercera Temporada AMZN WEB-DL 1080p Latino 1080p gratis en mega.

Power Book III: Raising Kanan (2023) Tercera Temporada AMZN WEB-DL 1080p Latino pelicula full hd, Power Book III: Raising Kanan (2023) Tercera Temporada AMZN WEB-DL 1080p Latino mega latino, Power Book III: Raising Kanan (2023) Tercera Temporada AMZN WEB-DL 1080p Latino 4k latino, Power Book III: Raising Kanan (2023) Tercera Temporada AMZN WEB-DL 1080p Latino pelicula completa, Power Book III: Raising Kanan (2023) Tercera Temporada AMZN WEB-DL 1080p Latino descargar gratis, descargar Power Book III: Raising Kanan (2023) Tercera Temporada AMZN WEB-DL 1080p Latino pelicula latino, Power Book III: Raising Kanan (2023) Tercera Temporada AMZN WEB-DL 1080p Latino 1 link mega, Power Book III: Raising Kanan (2023) Tercera Temporada AMZN WEB-DL 1080p Latino 1 link google drive, Power Book III: Raising Kanan (2023) Tercera Temporada AMZN WEB-DL 1080p Latino hd 1080p latino.
Comentarios 0