×

¿Problemas para descargar con Mozilla, EDGE? Deshabilita la opción "Abrir vinculos en una pestaña nueva" tal como lo muestra ésta imagen.

Power Book II: Ghost (2024) Temporada 4 AMZN WEB-DL 1080p Latino

79 vistas

Información de Power Book II: Ghost (2024) Temporada 4 AMZN WEB-DL 1080p Latino

Datos de la película

  • Calidad: 1080p
  • Audio: Español Latino AC3 5.1 WEB-DL - Ingles AC3 5.1 WEB-DL
  • Subtitulos: Español Latino SRT - Ingles SRT
  • Resolución: 1920x1080
  • Formato: MKV
  • Codec: H.264
  • Encoder: cinemaniahdd
  • Mediainfo: Clic para Mostrar Datos Ver
  • Power Book II, Ghost S04 - [1080p]\Power Book II. Ghost T04E01 AMZN WEB-DL 1080p Latino [CNMNHDD].mkv
    Format                      : Matroska
    Format version              : Version 4
    File size                   : 4.30 GiB
    Duration                    : 58 min 55 s
    Overall bit rate            : 10.4 Mb/s
    Movie name                  : Power Book II, Ghost S04E01 - I Dont Die Easy [1080p] - CinemaniaHDD.Net
    Encoded date                : UTC 2024-06-07 17:13:52
    Writing application         : mkvmerge v56.1.0 ('My Friend') 64-bit
    Writing library             : libebml v1.4.2 + libmatroska v1.6.4

    Video
    ID                          : 1
    Format                      : AVC
    Format/Info                 : Advanced Video Codec
    Format profile              : High@L4
    Format settings             : CABAC / 4 Ref Frames
    Format settings, CABAC      : Yes
    Format settings, Reference  : 4 frames
    Codec ID                    : V_MPEG4/ISO/AVC
    Duration                    : 58 min 55 s
    Bit rate mode               : Constant
    Bit rate                    : 8 512 kb/s
    Nominal bit rate            : 10 000 kb/s
    Width                       : 1 920 pixels
    Height                      : 1 080 pixels
    Display aspect ratio        : 16:9
    Frame rate mode             : Constant
    Frame rate                  : 23.976 (24000/1001) FPS
    Color space                 : YUV
    Chroma subsampling          : 4:2:0
    Bit depth                   : 8 bits
    Scan type                   : Progressive
    Bits/(Pixel*Frame)          : 0.171
    Stream size                 : 3.50 GiB (82%)
    Title                       : CinemaniaHDD
    Default                     : Yes
    Forced                      : No
    Color range                 : Limited
    Color primaries             : BT.709
    Transfer characteristics    : BT.709
    Matrix coefficients         : BT.709

    Audio #1
    ID                          : 2
    Format                      : AC-3
    Format/Info                 : Audio Coding 3
    Commercial name             : Dolby Digital
    Codec ID                    : A_AC3
    Duration                    : 58 min 55 s
    Bit rate mode               : Constant
    Bit rate                    : 640 kb/s
    Channel(s)                  : 6 channels
    Channel layout              : L R C LFE Ls Rs
    Sampling rate               : 48.0 kHz
    Frame rate                  : 31.250 FPS (1536 SPF)
    Compression mode            : Lossy
    Stream size                 : 270 MiB (6%)
    Title                       : Español Latino (AC3) [CinemaniaHDD]
    Language                    : Spanish
    Service kind                : Complete Main
    Default                     : Yes
    Forced                      : No

    Audio #2
    ID                          : 3
    Format                      : E-AC-3
    Format/Info                 : Enhanced AC-3
    Commercial name             : Dolby Digital Plus
    Codec ID                    : A_EAC3
    Duration                    : 58 min 55 s
    Bit rate mode               : Constant
    Bit rate                    : 640 kb/s
    Channel(s)                  : 6 channels
    Channel layout              : L R C LFE Ls Rs
    Sampling rate               : 48.0 kHz
    Frame rate                  : 31.250 FPS (1536 SPF)
    Compression mode            : Lossy
    Stream size                 : 270 MiB (6%)
    Title                       : Español latino (E-AC3) [CinemaniaHDD]
    Language                    : Spanish
    Service kind                : Complete Main
    Default                     : No
    Forced                      : No

    Audio #3
    ID                          : 4
    Format                      : E-AC-3
    Format/Info                 : Enhanced AC-3
    Commercial name             : Dolby Digital Plus
    Codec ID                    : A_EAC3
    Duration                    : 58 min 55 s
    Bit rate mode               : Constant
    Bit rate                    : 640 kb/s
    Channel(s)                  : 6 channels
    Channel layout              : L R C LFE Ls Rs
    Sampling rate               : 48.0 kHz
    Frame rate                  : 31.250 FPS (1536 SPF)
    Compression mode            : Lossy
    Stream size                 : 270 MiB (6%)
    Title                       : Inglés (Original) [CinemaniaHDD]
    Language                    : English
    Service kind                : Complete Main
    Default                     : No
    Forced                      : No

    Text #1
    ID                          : 5
    Format                      : UTF-8
    Codec ID                    : S_TEXT/UTF8
    Codec ID/Info               : UTF-8 Plain Text
    Duration                    : 58 min 0 s
    Bit rate                    : 94 b/s
    Count of elements           : 1264
    Stream size                 : 40.0 KiB (0%)
    Title                       : Español Latino [CinemaniaHDD]
    Language                    : Spanish
    Default                     : No
    Forced                      : No

    Text #2
    ID                          : 6
    Format                      : UTF-8
    Codec ID                    : S_TEXT/UTF8
    Codec ID/Info               : UTF-8 Plain Text
    Duration                    : 58 min 10 s
    Bit rate                    : 100 b/s
    Count of elements           : 1243
    Stream size                 : 42.8 KiB (0%)
    Title                       : Inglés [CinemaniaHDD]
    Language                    : English
    Default                     : No
    Forced                      : No

     

  • Peso: 4.30 GiB C/U --- 5 CAPÍTULOS DISPONIBLES

Sinopsis

Con el destino de su futuro en el juego y su familia en primer plano, Tariq debe reconciliar su pasado para poder llegar a la cima de la cadena alimentaria y convertirse en quien necesita ser para proteger a quienes más ama.

 

5 CAPÍTULOS DISPONIBLES

Ficha técnica

Video trailer de la película

Enlaces de descarga

Rip de Bluray

Descargar Power Book II: Ghost (2024) Temporada 4 AMZN WEB-DL 1080p Latino




Aportes de DPeliculasHDmega la pass es:dpeliculashdmega.org Aportes de CinemaniaHD la pass es:cinemaniahdd.com Aportes recientes:cinemaniahdd.net
Guardado en : Crimen , Drama , Series

Películas relacionadas

  • Un Heroe Anonimo (2024) 1080p Latino-CMHDD

    Un Heroe Anonimo (2024) 1080p Latino-CMHDD

    2024
    Un Heroe Anonimo (2024) 1080p Latino-CMHDD

    1h 53m 2024

    Descargar Un Heroe Anonimo (2024) 1080p Latino-CMHDD. Basada en una extraordinaria historia real, la...

    Director: Richard Ramsey

    Género: Drama

    Actores: Vin Morreale Jr

  • Un Heroe Anonimo (2024) Full HD 1080p Latino-CMHDD

    Un Heroe Anonimo (2024) Full HD 1080p Latino-CMHDD

    2024
    Un Heroe Anonimo (2024) Full HD 1080p Latino-CMHDD

    1h 53m 2024

    Descargar Un Heroe Anonimo (2024) Full HD 1080p Latino-CMHDD Basada en una extraordinaria historia real,...

    Director: Richard Ramsey

    Género: Drama

    Actores: Vin Morreale Jr

  • Un Heroe Anonimo (2024) REMUX 1080p Latino-CMHDD

    Un Heroe Anonimo (2024) REMUX 1080p Latino-CMHDD

    2024
    Un Heroe Anonimo (2024) REMUX 1080p Latino-CMHDD

    1h 53m 2024

    Descargar Un Heroe Anonimo (2024) REMUX 1080p Latino-CMHDD. Basada en una extraordinaria historia real,...

    Director: Richard Ramsey

    Género: Drama

    Actores: Vin Morreale Jr

  • Cómplices del engaño (2024) HD 1080p Latino

    Cómplices del engaño (2024) HD 1080p Latino

    2024
    Cómplices del engaño (2024) HD 1080p Latino

    1h 56m 2024

    Descargar Cómplices del engaño (2024) HD 1080p Latino. Gary Johnson es el asesino profesional más...

    Director: T.J. Larson

    Género: Comedia

    Actores: Tre Styles

descargar Power Book II: Ghost (2024) Temporada 4 AMZN WEB-DL 1080p Latino 1080p 1080p gratis, Power Book II: Ghost (2024) Temporada 4 AMZN WEB-DL 1080p Latino 1080p mega 1 link, Power Book II: Ghost (2024) Temporada 4 AMZN WEB-DL 1080p Latino 1080p serie completa, descargar Power Book II: Ghost (2024) Temporada 4 AMZN WEB-DL 1080p Latino 1080p gratis en mega.

Power Book II: Ghost (2024) Temporada 4 AMZN WEB-DL 1080p Latino pelicula full hd, Power Book II: Ghost (2024) Temporada 4 AMZN WEB-DL 1080p Latino mega latino, Power Book II: Ghost (2024) Temporada 4 AMZN WEB-DL 1080p Latino 4k latino, Power Book II: Ghost (2024) Temporada 4 AMZN WEB-DL 1080p Latino pelicula completa, Power Book II: Ghost (2024) Temporada 4 AMZN WEB-DL 1080p Latino descargar gratis, descargar Power Book II: Ghost (2024) Temporada 4 AMZN WEB-DL 1080p Latino pelicula latino, Power Book II: Ghost (2024) Temporada 4 AMZN WEB-DL 1080p Latino 1 link mega, Power Book II: Ghost (2024) Temporada 4 AMZN WEB-DL 1080p Latino 1 link google drive, Power Book II: Ghost (2024) Temporada 4 AMZN WEB-DL 1080p Latino hd 1080p latino.
Comentarios 0