×

¿Problemas para descargar con Mozilla, EDGE? Deshabilita la opción "Abrir vinculos en una pestaña nueva" tal como lo muestra ésta imagen.

Power Book II: Ghost (2021-2022) Segunda Temporada AMZN WEB-DL 1080p Latino

844 vistas

Información de Power Book II: Ghost (2021-2022) Segunda Temporada AMZN WEB-DL 1080p Latino

Datos de la película

  • Calidad: 1080p
  • Audio: Español Latino AC3 5.1 WEB-DL - Ingles AC3 5.1 WEB-DL
  • Subtitulos: Español Latino SRT - Ingles SRT
  • Resolución: 1920x1080
  • Formato: MKV
  • Codec: H.264
  • Encoder: cinemaniahdd
  • Mediainfo: Clic para Mostrar Datos Ver
  • Power Book II. Ghost T02E01 AMZN WEB-DL 1080p Latino [CNMNHDD].mkv
    Format                      : Matroska
    Format version              : Version 4
    File size                   : 4.98 GiB
    Duration                    : 1 h 2 min
    Overall bit rate            : 11.4 Mb/s
    Movie name                  : Power Book II. Ghost T02E01 - CinemaniaHDD.Net
    Encoded date                : UTC 2021-11-21 17:26:42
    Writing application         : mkvmerge v56.1.0 ('My Friend') 64-bit
    Writing library             : libebml v1.4.2 + libmatroska v1.6.4

    Video
    ID                          : 1
    Format                      : AVC
    Format/Info                 : Advanced Video Codec
    Format profile              : High@L4
    Format settings             : CABAC / 4 Ref Frames
    Format settings, CABAC      : Yes
    Format settings, Reference  : 4 frames
    Codec ID                    : V_MPEG4/ISO/AVC
    Duration                    : 1 h 2 min
    Bit rate mode               : Constant
    Bit rate                    : 9 484 kb/s
    Nominal bit rate            : 10 000 kb/s
    Width                       : 1 920 pixels
    Height                      : 1 080 pixels
    Display aspect ratio        : 16:9
    Frame rate mode             : Constant
    Frame rate                  : 23.976 (24000/1001) FPS
    Color space                 : YUV
    Chroma subsampling          : 4:2:0
    Bit depth                   : 8 bits
    Scan type                   : Progressive
    Bits/(Pixel*Frame)          : 0.191
    Stream size                 : 4.14 GiB (83%)
    Title                       : CinemaniaHDD
    Default                     : Yes
    Forced                      : No
    Color range                 : Limited
    Color primaries             : BT.709
    Transfer characteristics    : BT.709
    Matrix coefficients         : BT.709

    Audio #1
    ID                          : 2
    Format                      : AC-3
    Format/Info                 : Audio Coding 3
    Commercial name             : Dolby Digital
    Codec ID                    : A_AC3
    Duration                    : 1 h 2 min
    Bit rate mode               : Constant
    Bit rate                    : 640 kb/s
    Channel(s)                  : 6 channels
    Channel layout              : L R C LFE Ls Rs
    Sampling rate               : 48.0 kHz
    Frame rate                  : 31.250 FPS (1536 SPF)
    Compression mode            : Lossy
    Stream size                 : 286 MiB (6%)
    Title                       : Español latino [CinemaniaHDD]
    Language                    : Spanish
    Service kind                : Complete Main
    Default                     : Yes
    Forced                      : No

    Audio #2
    ID                          : 3
    Format                      : E-AC-3
    Format/Info                 : Enhanced AC-3
    Commercial name             : Dolby Digital Plus
    Codec ID                    : A_EAC3
    Duration                    : 1 h 2 min
    Bit rate mode               : Constant
    Bit rate                    : 640 kb/s
    Channel(s)                  : 6 channels
    Channel layout              : L R C LFE Ls Rs
    Sampling rate               : 48.0 kHz
    Frame rate                  : 31.250 FPS (1536 SPF)
    Compression mode            : Lossy
    Stream size                 : 286 MiB (6%)
    Title                       : Español latino / E-AC3 [CinemaniaHDD]
    Language                    : Spanish
    Service kind                : Complete Main
    Default                     : No
    Forced                      : No

    Audio #3
    ID                          : 4
    Format                      : E-AC-3
    Format/Info                 : Enhanced AC-3
    Commercial name             : Dolby Digital Plus
    Codec ID                    : A_EAC3
    Duration                    : 1 h 2 min
    Bit rate mode               : Constant
    Bit rate                    : 640 kb/s
    Channel(s)                  : 6 channels
    Channel layout              : L R C LFE Ls Rs
    Sampling rate               : 48.0 kHz
    Frame rate                  : 31.250 FPS (1536 SPF)
    Compression mode            : Lossy
    Stream size                 : 286 MiB (6%)
    Title                       : Inglés [CinemaniaHDD]
    Language                    : English
    Service kind                : Complete Main
    Default                     : No
    Forced                      : No

    Text #1
    ID                          : 5
    Format                      : UTF-8
    Codec ID                    : S_TEXT/UTF8
    Codec ID/Info               : UTF-8 Plain Text
    Duration                    : 1 h 0 min
    Bit rate                    : 72 b/s
    Count of elements           : 1096
    Stream size                 : 32.2 KiB (0%)
    Title                       : Español latino [CinemaniaHDD]
    Language                    : Spanish
    Default                     : No
    Forced                      : No

    Text #2
    ID                          : 6
    Format                      : UTF-8
    Codec ID                    : S_TEXT/UTF8
    Codec ID/Info               : UTF-8 Plain Text
    Duration                    : 1 h 1 min
    Bit rate                    : 91 b/s
    Count of elements           : 1247
    Stream size                 : 41.4 KiB (0%)
    Title                       : Inglés [CinemaniaHDD]
    Language                    : English
    Default                     : No
    Forced                      : No

     

  • Peso: 3.94 GiB Aprox ---- 49 GiB in 10 Chapters.

Sinopsis

Retomando solo unos días después del final de «Power», esta serie secuela sigue a Tariq navegando en su nueva vida, en la que su deseo de deshacerse del legado de su padre se enfrenta a la creciente presión para salvar a su familia.

Ficha técnica

Video trailer de la película

Enlaces de descarga

Rip de Bluray

Descargar Power Book II: Ghost (2021-2022) Segunda Temporada AMZN WEB-DL 1080p Latino




Aportes de DPeliculasHDmega la pass es:dpeliculashdmega.org Aportes de CinemaniaHD la pass es:cinemaniahdd.com
Guardado en : Crimen , Drama , Series

Películas relacionadas

  • Obi-Wan Kenobi (2022) Temporada 1 WEB-DL 1080p Latino

    Obi-Wan Kenobi (2022) Temporada 1 WEB-DL 1080p Latino

    2022
    Obi-Wan Kenobi (2022) Temporada 1 WEB-DL 1080p Latino

    0h 0m 2022

    Obi-Wan Kenobi (2022) Temporada 1 WEB-DL 1080p Latino. Miniserie de TV basada en la figura de Obi-Wan...

    Director: Joby Harold

    Género: Action & Adventure

    Actores: Vivien Lyra Blair

  • Warning (2021) PLACEBO Full HD 1080p Latino

    Warning (2021) PLACEBO Full HD 1080p Latino

    2021
    Warning (2021) PLACEBO Full HD 1080p Latino

    1h 25m 2021

    Descargar Warning (2021) PLACEBO Full HD 1080p Latino. Ambientada en un futuro no muy lejano, la obra...

    Director: Agata Alexander

    Género: Ciencia ficción

    Actores: Toni Garrn

  • Warning (2021) REMUX 1080p Latino

    Warning (2021) REMUX 1080p Latino

    2021
    Warning (2021) REMUX 1080p Latino

    1h 25m 2021

    Descargar Warning (2021) REMUX 1080p Latino. Ambientada en un futuro no muy lejano, la obra reflexiona...

    Director: Agata Alexander

    Género: Ciencia ficción

    Actores: Toni Garrn

Power Book II: Ghost (2021-2022) Segunda Temporada AMZN WEB-DL 1080p Latino pelicula full hd, Power Book II: Ghost (2021-2022) Segunda Temporada AMZN WEB-DL 1080p Latino mega latino, Power Book II: Ghost (2021-2022) Segunda Temporada AMZN WEB-DL 1080p Latino 4k latino, Power Book II: Ghost (2021-2022) Segunda Temporada AMZN WEB-DL 1080p Latino pelicula completa, Power Book II: Ghost (2021-2022) Segunda Temporada AMZN WEB-DL 1080p Latino descargar gratis, descargar Power Book II: Ghost (2021-2022) Segunda Temporada AMZN WEB-DL 1080p Latino pelicula latino, Power Book II: Ghost (2021-2022) Segunda Temporada AMZN WEB-DL 1080p Latino 1 link mega, Power Book II: Ghost (2021-2022) Segunda Temporada AMZN WEB-DL 1080p Latino 1 link google drive, Power Book II: Ghost (2021-2022) Segunda Temporada AMZN WEB-DL 1080p Latino hd 1080p latino.
Comentarios 4
  • marco - 06 febrero, 2022

    el capitlo 10 no sirve ???

    • CinemaniaHDD - 06 febrero, 2022

      de que hablas?
      yo veo todo bien, que problemas presentas?

  • juan jose - 13 enero, 2022

    buena series y para cuando estarán los demás capítulos porque en el canal starz ya termino parece por favor y muchas gracias

    • CinemaniaHDD - 16 enero, 2022

      aun no termina, recien va por el episodio 7. que ya fue agregado al paste