Potosí (2013) WEBDL 1080p Latino

1.183 vistas
1 estrella2 estrellas3 estrellas4 estrellas5 estrellas (Ninguna valoración todavía)
Cargando…

Información de Potosí (2013) WEBDL 1080p Latino

Datos de la película

  • Calidad: WEBDL
  • Audio: Se especifica abajo de la Sinopsis
  • Subtitulos: No
  • Resolución: 1912x816
  • Formato: MKV
  • Codec: H.264
  • Encoder: Dpelis
  • Mediainfo: Clic para Mostrar Datos Ver
  • Potosi.2013.webdl.1080p.latino.mkv
    Format                      : Matroska
    Format version              : Version 4 / Version 2
    File size                   : 2.95 GiB
    Duration                    : 1 h 55 min
    Overall bit rate            : 3 663 kb/s
    Movie name                  : DPeliculasHDMega.ORG
    Encoded date                : UTC 2017-06-22 15:34:22
    Writing application         : mkvmerge v10.0.0 ('To Drown In You') 64bit
    Writing library             : libebml v1.3.4 + libmatroska v1.4.5

    Video
    ID                          : 1
    Format                      : AVC
    Format/Info                 : Advanced Video Codec
    Format profile              : High@L4.1
    Format settings, CABAC      : Yes
    Format settings, ReFrames   : 4 frames
    Codec ID                    : V_MPEG4/ISO/AVC
    Duration                    : 1 h 55 min
    Bit rate                    : 3 500 kb/s
    Width                       : 1 912 pixels
    Height                      : 816 pixels
    Display aspect ratio        : 2.35:1
    Frame rate mode             : Constant
    Frame rate                  : 24.000 FPS
    Color space                 : YUV
    Chroma subsampling          : 4:2:0
    Bit depth                   : 8 bits
    Scan type                   : Progressive
    Bits/(Pixel*Frame)          : 0.093
    Stream size                 : 2.75 GiB (93%)
    Writing library             : x264 core 148 r2708 86b7198
    Encoding settings           : cabac=1 / ref=3 / deblock=1:0:0 / analyse=0x3:0x113 / me=hex / subme=7 / psy=1 / psy_rd=1.00:0.00 / mixed_ref=1 / me_range=16 / chroma_me=1 / trellis=1 / 8x8dct=1 / cqm=0 / deadzone=21,11 / fast_pskip=1 / chroma_qp_offset=-2 / threads=12 / lookahead_threads=2 / sliced_threads=0 / nr=0 / decimate=1 / interlaced=0 / bluray_compat=0 / constrained_intra=0 / bframes=3 / b_pyramid=2 / b_adapt=1 / b_bias=0 / direct=1 / weightb=1 / open_gop=0 / weightp=2 / keyint=240 / keyint_min=24 / scenecut=40 / intra_refresh=0 / rc_lookahead=40 / rc=abr / mbtree=1 / bitrate=3500 / ratetol=1.0 / qcomp=0.60 / qpmin=0 / qpmax=69 / qpstep=4 / vbv_maxrate=62500 / vbv_bufsize=78125 / nal_hrd=none / filler=0 / ip_ratio=1.40 / aq=1:1.00
    Default                     : Yes
    Forced                      : No
    Color range                 : Limited
    Color primaries             : BT.709
    Transfer characteristics    : BT.709
    Matrix coefficients         : BT.709

    Audio
    ID                          : 2
    Format                      : AC-3
    Format/Info                 : Audio Coding 3
    Format settings, Endianness : Big
    Codec ID                    : A_AC3
    Duration                    : 1 h 55 min
    Bit rate mode               : Constant
    Bit rate                    : 256 kb/s
    Channel(s)                  : 6 channels
    Channel positions           : Front: L C R, Side: L R, LFE
    Sampling rate               : 48.0 kHz
    Frame rate                  : 31.250 FPS (1536 spf)
    Bit depth                   : 16 bits
    Compression mode            : Lossy
    Delay relative to video     : -5 ms
    Stream size                 : 211 MiB (7%)
    Language                    : Spanish
    Service kind                : Complete Main
    Default                     : Yes
    Forced                      : No

    Menu
    00:00:00.000                : en:Chapter 1
    00:05:00.000                : en:Chapter 2
    00:09:58.000                : en:Chapter 3
    00:10:00.000                : en:Chapter 4
    00:15:00.000                : en:Chapter 5
    00:20:00.000                : en:Chapter 6
    00:20:47.000                : en:Chapter 7
    00:25:00.000                : en:Chapter 8
    00:30:00.000                : en:Chapter 9
    00:30:22.000                : en:Chapter 10
    00:35:00.000                : en:Chapter 11
    00:40:00.000                : en:Chapter 12
    00:40:51.000                : en:Chapter 13
    00:45:00.000                : en:Chapter 14
    00:48:15.000                : en:Chapter 15
    00:54:21.000                : en:Chapter 16
    01:01:24.000                : en:Chapter 17
    01:08:28.000                : en:Chapter 18
    01:15:18.000                : en:Chapter 19
    01:22:07.000                : en:Chapter 20
    01:29:40.000                : en:Chapter 21
    01:34:46.000                : en:Chapter 22
    01:42:21.000                : en:Chapter 23
    01:50:08.000                : en:Chapter 24

  • Peso: 2.95 GB

Sinopsis

Este largometraje con Alfredo Castruita en la dirección se estrenó en 2013 en festivales pero no ha llegado a las salas de cine hasta 3 años después. El guión lo firma Jose Lomas-Hervert y la historia se centra en un accidente que sucede en una carretera desierta. Este traumático suceso conectará a tres personajes con vidas repletas de tragedia y problemas. Estos tres personajes son un hombre mayor de 82 años y pastor de cabras que no ha disparado su antigua pistola desde hace 40 años, una víctima de violencia doméstica, y un campesino que a duras penas consigue sacar adelante a su familia en un país en guerra contra el crimen organizado. El accidente unirá a estas tres personas de una forma crucial para el desarrollo de la historia.

 

Español Latino  AC3 2.0

Ficha técnica

  • Titulo original: Potosí
  • Fecha de lanzamiento: 21-07-2013 (Mexico)
  • Director: Alfredo Castruita
  • Género: Crimen, Drama
  • Puntuación: 0.0 0 votos
  • Duración:
    0h 0m

Video trailer de la película

Enlaces de descarga

Rip de Bluray

Descargar Potosí (2013) WEBDL 1080p Latino




Aportes de DPeliculasHDmega la pass es:dpeliculashdmega.org Aportes de CinemaniaHD la pass es:cinemaniahdd.com
Guardado en : Crimen , Drama

Películas relacionadas

  • A ciegas (2018) NF 1080p Latino

    2018
    A ciegas (2018) NF 1080p Latino

    3.0 2h 03m 2018

    Thriller posapocalíptico en el que una mujer y sus dos hijos, estos con los ojos vendados, navegan río...

    Director: Susanne Bier

    Género: Ciencia ficción

    Actores: Trevante Rhodes

  • El Código Enigma (2014) Full 1080p Latino

    2014
    El Código Enigma (2014) Full 1080p Latino

    5.0 1h 55m 2014

    Descargar El Código Enigma (2014) Full 1080p Latino, Mega, Google Drive, Torrent. Durante el invierno...

    Director: Morten Tyldum

    Género: Bélica

    Actores: Viv Weatherall

  • El Código Enigma (2014) 1080p Latino

    2014
    El Código Enigma (2014) 1080p Latino

    0.0 1h 55m 2014

    Descargar El Código Enigma (2014) 1080p Latino, Mega, Google Drive, Torrent. Durante el invierno de...

    Director: Morten Tyldum

    Género: Bélica

    Actores: Viv Weatherall

  • Mistrust (2018) AMZN Web-DL 1080p Latino

    2018
    Mistrust (2018) AMZN Web-DL 1080p Latino

    0.0 1h 30m 2018

    Descargar Mistrust (2018) AMZN Web-DL 1080p Latino, Mega, Google Drive, Torrent. Al no tener compromisos...

    Director: Shane Stanley

    Género: Drama

    Actores: Parker Stevenson

Comentarios 0