×

¿Problemas para descargar con Mozilla, EDGE? Deshabilita la opción "Abrir vinculos en una pestaña nueva" tal como lo muestra ésta imagen.

Possessor (2020) UNCUT REMUX 1080p Latino

171 vistas

Información de Possessor (2020) UNCUT REMUX 1080p Latino

Datos de la película

  • Calidad: Full 1080p
  • Audio: Español Latino AC3 2.0 WEB-DL - Ingles DTS 5.1 BLURAY
  • Subtitulos: Español Latino SRT- FORZADOS SRT
  • Resolución: 1920x1080p
  • Formato: MKV
  • Codec: H.264
  • Encoder: Melkor
  • Mediainfo: Clic para Mostrar Datos Ver
  • Possessor (2020) UNCUT REMUX 1080p Latino.mkv
    Format                      : Matroska
    Format version              : Version 4
    File size                   : 29.2 GiB
    Duration                    : 1 h 44 min
    Overall bit rate mode       : Variable
    Overall bit rate            : 40.1 Mb/s
    Movie name                  : Possessor (2020) CinemaniaHDD.Net
    Encoded date                : UTC 2021-10-06 07:03:33
    Writing application         : mkvmerge v56.1.0 ('My Friend') 64-bit
    Writing library             : libebml v1.4.2 + libmatroska v1.6.4
    Attachments                 : CINEMANIAHD.png

    Video
    ID                          : 1
    Format                      : AVC
    Format/Info                 : Advanced Video Codec
    Format profile              : High@L4.1
    Format settings             : CABAC / 4 Ref Frames
    Format settings, CABAC      : Yes
    Format settings, Reference  : 4 frames
    Codec ID                    : V_MPEG4/ISO/AVC
    Duration                    : 1 h 44 min
    Bit rate mode               : Variable
    Bit rate                    : 37.5 Mb/s
    Maximum bit rate            : 39.0 Mb/s
    Width                       : 1 920 pixels
    Height                      : 1 080 pixels
    Display aspect ratio        : 16:9
    Frame rate mode             : Constant
    Frame rate                  : 23.976 (24000/1001) FPS
    Color space                 : YUV
    Chroma subsampling          : 4:2:0
    Bit depth                   : 8 bits
    Scan type                   : Progressive
    Bits/(Pixel*Frame)          : 0.755
    Stream size                 : 27.3 GiB (94%)
    Title                       : REMUX HD1080p [CinemaniaHDD]
    Language                    : English
    Default                     : Yes
    Forced                      : Yes

    Audio #1
    ID                          : 2
    Format                      : AC-3
    Format/Info                 : Audio Coding 3
    Commercial name             : Dolby Digital
    Codec ID                    : A_AC3
    Duration                    : 1 h 44 min
    Bit rate mode               : Constant
    Bit rate                    : 256 kb/s
    Channel(s)                  : 2 channels
    Channel layout              : L R
    Sampling rate               : 48.0 kHz
    Frame rate                  : 31.250 FPS (1536 SPF)
    Compression mode            : Lossy
    Stream size                 : 191 MiB (1%)
    Title                       : Español Latino [CinemaniaHDD]
    Language                    : Spanish
    Service kind                : Complete Main
    Default                     : Yes
    Forced                      : Yes

    Audio #2
    ID                          : 3
    Format                      : DTS XLL
    Format/Info                 : Digital Theater Systems
    Commercial name             : DTS-HD Master Audio
    Codec ID                    : A_DTS
    Duration                    : 1 h 44 min
    Bit rate mode               : Variable
    Bit rate                    : 2 285 kb/s
    Channel(s)                  : 6 channels
    Channel layout              : C L R Ls Rs LFE
    Sampling rate               : 48.0 kHz
    Frame rate                  : 93.750 FPS (512 SPF)
    Bit depth                   : 24 bits
    Compression mode            : Lossless
    Stream size                 : 1.67 GiB (6%)
    Title                       : Ingles [CinemaniaHDD]
    Language                    : English
    Default                     : No
    Forced                      : No

    Text #1
    ID                          : 4
    Format                      : UTF-8
    Codec ID                    : S_TEXT/UTF8
    Codec ID/Info               : UTF-8 Plain Text
    Duration                    : 8 s 624 ms
    Bit rate                    : 88 b/s
    Count of elements           : 2
    Stream size                 : 95.0 Bytes (0%)
    Title                       : Forzados-SRT [CinemaniaHDD]
    Language                    : Spanish
    Default                     : Yes
    Forced                      : Yes

    Text #2
    ID                          : 5
    Format                      : UTF-8
    Codec ID                    : S_TEXT/UTF8
    Codec ID/Info               : UTF-8 Plain Text
    Duration                    : 1 h 36 min
    Bit rate                    : 32 b/s
    Count of elements           : 709
    Stream size                 : 23.0 KiB (0%)
    Title                       : Español-SRT [CinemaniaHDD]
    Language                    : Spanish
    Default                     : No
    Forced                      : No

    Text #3
    ID                          : 6
    Format                      : UTF-8
    Codec ID                    : S_TEXT/UTF8
    Codec ID/Info               : UTF-8 Plain Text
    Duration                    : 1 h 33 min
    Bit rate                    : 31 b/s
    Count of elements           : 714
    Stream size                 : 21.7 KiB (0%)
    Title                       : Ingles [CinemaniaHDD]
    Language                    : English
    Default                     : No
    Forced                      : No

    Menu
    00:00:00.000                : Chapter 01
    00:07:47.382                : Chapter 02
    00:15:07.864                : Chapter 03
    00:22:31.391                : Chapter 04
    00:31:58.208                : Chapter 05
    00:41:37.370                : Chapter 06
    00:50:17.306                : Chapter 07
    01:06:06.963                : Chapter 08
    01:15:38.534                : Chapter 09
    01:23:37.637                : Chapter 10
    01:37:13.578                : Chapter 11

  • Peso: 29.2 GiB

Sinopsis

Descargar Possessor (2020) UNCUT REMUX 1080p Latino. Tasya Vos es una agente de una organización secreta que utiliza implantes cerebrales para controlar el movimiento corporal de otras personas, obligándolas a cometer asesinatos que benefician a toda clase de peces gordos del mundo corporativo. Un día, durante una misión rutinaria, algo sale mal. La agente Vos se ve atrapada dentro de la mente de uno de los sujetos que trataba de controlar, cuyo apetito por la violencia se acaba convirtiendo en su peor aliado, superando incluso el suyo propio.

Ficha técnica

Video trailer de la película

Enlaces de descarga

Rip de Bluray

Descargar Possessor (2020) UNCUT REMUX 1080p Latino




Aportes de DPeliculasHDmega la pass es:dpeliculashdmega.org Aportes de CinemaniaHD la pass es:cinemaniahdd.com
Guardado en : Ciencia ficción , Remux , Suspenso , Terror

Películas relacionadas

descargar Possessor (2020) UNCUT REMUX 1080p Latino Full 1080p 1080p gratis, Possessor (2020) UNCUT REMUX 1080p Latino Full 1080p mega 1 link, Possessor (2020) UNCUT REMUX 1080p Latino Full 1080p pelicula completa, descargar Possessor (2020) UNCUT REMUX 1080p Latino Full 1080p gratis en mega.

Possessor (2020) UNCUT REMUX 1080p Latino pelicula full hd, Possessor (2020) UNCUT REMUX 1080p Latino mega latino, Possessor (2020) UNCUT REMUX 1080p Latino 4k latino, Possessor (2020) UNCUT REMUX 1080p Latino pelicula completa, Possessor (2020) UNCUT REMUX 1080p Latino descargar gratis, descargar Possessor (2020) UNCUT REMUX 1080p Latino pelicula latino, Possessor (2020) UNCUT REMUX 1080p Latino 1 link mega, Possessor (2020) UNCUT REMUX 1080p Latino 1 link google drive, Possessor (2020) UNCUT REMUX 1080p Latino hd 1080p latino.
Comentarios 0