×

¿Problemas para descargar con Mozilla, EDGE? Deshabilita la opción "Abrir vinculos en una pestaña nueva" tal como lo muestra ésta imagen.

Possessions (2020) Primera Temporada HBOMAX WEB-DL 1080p Latino-Hibrido

354 vistas

Información de Possessions (2020) Primera Temporada HBOMAX WEB-DL 1080p Latino-Hibrido

Datos de la película

  • Calidad:
  • Audio: Español Latino AC3 5.1 WEB-DL - Ingles AC3 5.1 WEB-DL
  • Subtitulos: Español Latino SRT- FORZADOS SRT
  • Resolución: 1920x1080
  • Formato: MKV
  • Codec: H.264
  • Encoder: cinemaniahdd
  • Mediainfo: Clic para Mostrar Datos Ver
  • Possessions T01E01 HBOMAX WEB-DL 1080p Latino [CNMNHDD].mkv
    Format                      : Matroska
    Format version              : Version 4
    File size                   : 3.40 GiB
    Duration                    : 54 min 4 s
    Overall bit rate mode       : Variable
    Overall bit rate            : 9 003 kb/s
    Movie name                  : Possessions T01E01 - CinemaniaHDD.Net
    Encoded date                : UTC 2021-06-30 00:24:42
    Writing application         : mkvmerge v56.1.0 ('My Friend') 64-bit
    Writing library             : libebml v1.4.2 + libmatroska v1.6.4

    Video
    ID                          : 1
    Format                      : AVC
    Format/Info                 : Advanced Video Codec
    Format profile              : High@L4
    Format settings             : CABAC / 4 Ref Frames
    Format settings, CABAC      : Yes
    Format settings, Reference  : 4 frames
    Codec ID                    : V_MPEG4/ISO/AVC
    Duration                    : 54 min 0 s
    Bit rate mode               : Variable
    Bit rate                    : 8 245 kb/s
    Maximum bit rate            : 12.4 Mb/s
    Width                       : 1 920 pixels
    Height                      : 1 080 pixels
    Display aspect ratio        : 16:9
    Frame rate mode             : Constant
    Frame rate                  : 23.976 (24000/1001) FPS
    Color space                 : YUV
    Chroma subsampling          : 4:2:0
    Bit depth                   : 8 bits
    Scan type                   : Progressive
    Bits/(Pixel*Frame)          : 0.166
    Stream size                 : 3.11 GiB (91%)
    Title                       : CinemaniaHDD
    Default                     : Yes
    Forced                      : No
    Color range                 : Limited
    Color primaries             : BT.709
    Transfer characteristics    : BT.709
    Matrix coefficients         : BT.709

    Audio #1
    ID                          : 2
    Format                      : AC-3
    Format/Info                 : Audio Coding 3
    Commercial name             : Dolby Digital
    Codec ID                    : A_AC3
    Duration                    : 54 min 4 s
    Bit rate mode               : Constant
    Bit rate                    : 384 kb/s
    Channel(s)                  : 6 channels
    Channel layout              : L R C LFE Ls Rs
    Sampling rate               : 48.0 kHz
    Frame rate                  : 31.250 FPS (1536 SPF)
    Compression mode            : Lossy
    Stream size                 : 149 MiB (4%)
    Title                       : Español latino [CinemaniaHDD]
    Language                    : Spanish
    Service kind                : Complete Main
    Default                     : Yes
    Forced                      : No

    Audio #2
    ID                          : 3
    Format                      : AC-3
    Format/Info                 : Audio Coding 3
    Commercial name             : Dolby Digital
    Codec ID                    : A_AC3
    Duration                    : 54 min 0 s
    Bit rate mode               : Constant
    Bit rate                    : 384 kb/s
    Channel(s)                  : 6 channels
    Channel layout              : L R C LFE Ls Rs
    Sampling rate               : 48.0 kHz
    Frame rate                  : 31.250 FPS (1536 SPF)
    Compression mode            : Lossy
    Stream size                 : 148 MiB (4%)
    Title                       : Inglés [CinemaniaHDD]
    Language                    : English
    Service kind                : Complete Main
    Default                     : No
    Forced                      : No

    Text #1
    ID                          : 4
    Format                      : UTF-8
    Codec ID                    : S_TEXT/UTF8
    Codec ID/Info               : UTF-8 Plain Text
    Duration                    : 47 min 13 s
    Bit rate                    : 17 b/s
    Count of elements           : 235
    Stream size                 : 6.07 KiB (0%)
    Title                       : Forzados [CinemaniaHDD]
    Language                    : Spanish
    Default                     : Yes
    Forced                      : Yes

    Text #2
    ID                          : 5
    Format                      : UTF-8
    Codec ID                    : S_TEXT/UTF8
    Codec ID/Info               : UTF-8 Plain Text
    Duration                    : 50 min 32 s
    Bit rate                    : 41 b/s
    Count of elements           : 630
    Stream size                 : 15.5 KiB (0%)
    Title                       : Español latino [CinemaniaHDD]
    Language                    : Spanish
    Default                     : No
    Forced                      : No

    Text #3
    ID                          : 6
    Format                      : UTF-8
    Codec ID                    : S_TEXT/UTF8
    Codec ID/Info               : UTF-8 Plain Text
    Duration                    : 52 min 51 s
    Bit rate                    : 51 b/s
    Count of elements           : 697
    Stream size                 : 19.8 KiB (0%)
    Title                       : Inglés [CC] [CinemaniaHDD]
    Language                    : English
    Default                     : No
    Forced                      : No

     

     

  • Peso: 3.40 GiB Aprox ---- 19.1 GiB in 6 Chapters.

Sinopsis

Una joven francesa residente en Israel está acusada del asesinato de su marido el día de su boda. Mientras la novia lucha por demostrar su inocencia, misteriosos sucesos la rodean. ¿Es ella culpable o podría ser la víctima?

Ficha técnica

Video trailer de la película

Enlaces de descarga

Rip de Bluray

Descargar Possessions (2020) Primera Temporada HBOMAX WEB-DL 1080p Latino-Hibrido




Aportes de DPeliculasHDmega la pass es:dpeliculashdmega.org Aportes de CinemaniaHD la pass es:cinemaniahdd.com
Guardado en : Crimen , Action & Adventure , HBOMAX , Series

Películas relacionadas

descargar Possessions (2020) Primera Temporada HBOMAX WEB-DL 1080p Latino-Hibrido 1080p gratis, Possessions (2020) Primera Temporada HBOMAX WEB-DL 1080p Latino-Hibrido mega 1 link, Possessions (2020) Primera Temporada HBOMAX WEB-DL 1080p Latino-Hibrido serie completa, descargar Possessions (2020) Primera Temporada HBOMAX WEB-DL 1080p Latino-Hibrido gratis en mega.

Possessions (2020) Primera Temporada HBOMAX WEB-DL 1080p Latino-Hibrido pelicula full hd, Possessions (2020) Primera Temporada HBOMAX WEB-DL 1080p Latino-Hibrido mega latino, Possessions (2020) Primera Temporada HBOMAX WEB-DL 1080p Latino-Hibrido 4k latino, Possessions (2020) Primera Temporada HBOMAX WEB-DL 1080p Latino-Hibrido pelicula completa, Possessions (2020) Primera Temporada HBOMAX WEB-DL 1080p Latino-Hibrido descargar gratis, descargar Possessions (2020) Primera Temporada HBOMAX WEB-DL 1080p Latino-Hibrido pelicula latino, Possessions (2020) Primera Temporada HBOMAX WEB-DL 1080p Latino-Hibrido 1 link mega, Possessions (2020) Primera Temporada HBOMAX WEB-DL 1080p Latino-Hibrido 1 link google drive, Possessions (2020) Primera Temporada HBOMAX WEB-DL 1080p Latino-Hibrido hd 1080p latino.
Comentarios 4
  • JavierC - 22 febrero, 2021

    Aún no está el capítulo 6 en español? Está buenísima la serie, gracias

    • CinemaniaHDD - 29 junio, 2021

      Hola, recien hoy fue liberado el doblaje

  • Chomplis - 21 febrero, 2021

    Buenas tardes, gracias por subirla. Saben si subirán los subtítulos en Español? O si saben dónde puedo conseguirlos? Gracias

    • CinemaniaHDD - 29 junio, 2021

      Hola, ya esta actualizada la serie.