Poseidón (2006) Full 1080p Latino

3.039 vistas
1 estrella2 estrellas3 estrellas4 estrellas5 estrellas (1 votos, promedio: 3,00 de 5)
Cargando…

Información de Poseidón (2006) Full 1080p Latino

Datos de la película

  • Calidad: Full 1080p
  • Audio: Español Latino AC3 5.1 BLURAY - Ingles DTS 5.1 BLURAY
  • Subtitulos: Español Latino PGS - Ingles PGS
  • Resolución: 1920X1080
  • Formato: MKV
  • Codec: H.264
  • Encoder: Dpelis
  • Mediainfo: Clic para Mostrar Datos Ver
  • Format                                   : Matroska
    Format version                           : Version 4 / Version 2
    File size                                : 5.39 GiB
    Duration                                 : 1 h 38 min
    Overall bit rate                         : 7 849 kb/s
    Movie name                               : dpeliculashdmega.org
    Encoded date                             : UTC 2017-11-16 06:10:41 / UTC 2017-11-15T02:34:09Z
    Writing application                      : mkvmerge v15.0.0 ('Duel with the Devil') 64-bit
    Writing library                          : libebml v1.3.5 + libmatroska v1.4.5 / Lavf57.7.2

    Video
    ID                                       : 1
    Format                                   : AVC
    Format/Info                              : Advanced Video Codec
    Format profile                           : [email protected]
    Format settings                          : CABAC / 4 Ref Frames
    Format settings, CABAC                   : Yes
    Format settings, RefFrames               : 4 frames
    Codec ID                                 : V_MPEG4/ISO/AVC
    Duration                                 : 1 h 38 min
    Bit rate                                 : 5 736 kb/s
    Width                                    : 1 920 pixels
    Height                                   : 1 080 pixels
    Display aspect ratio                     : 16:9
    Frame rate mode                          : Constant
    Frame rate                               : 23.976 (24000/1001) FPS
    Color space                              : YUV
    Chroma subsampling                       : 4:2:0
    Bit depth                                : 8 bits
    Scan type                                : Progressive
    Bits/(Pixel*Frame)                       : 0.115
    Stream size                              : 3.94 GiB (73%)
    Title                                    : Poseidón (2006) Full 1080p Latino
    Writing library                          : x264 core 148 r2708 86b7198
    Encoding settings                        : cabac=1 / ref=4 / deblock=1:0:0 / analyse=0x3:0x133 / me=esa / subme=10 / psy=1 / psy_rd=1.00:0.00 / mixed_ref=1 / me_range=24 / chroma_me=1 / trellis=2 / 8x8dct=1 / cqm=0 / deadzone=21,11 / fast_pskip=1 / chroma_qp_offset=-2 / threads=34 / lookahead_threads=5 / sliced_threads=0 / nr=0 / decimate=1 / interlaced=0 / bluray_compat=0 / constrained_intra=0 / bframes=8 / b_pyramid=2 / b_adapt=2 / b_bias=0 / direct=3 / weightb=1 / open_gop=0 / weightp=2 / keyint=240 / keyint_min=24 / scenecut=40 / intra_refresh=0 / rc_lookahead=60 / rc=crf / mbtree=1 / crf=20.0 / qcomp=0.60 / qpmin=0 / qpmax=69 / qpstep=4 / vbv_maxrate=62500 / vbv_bufsize=78125 / crf_max=0.0 / nal_hrd=none / filler=0 / ip_ratio=1.40 / aq=1:1.00
    Language                                 : English
    Default                                  : Yes
    Forced                                   : No
    Color range                              : Limited
    Color primaries                          : BT.709
    Transfer characteristics                 : BT.709
    Matrix coefficients                      : BT.709
    Statistics Tags Issue                    : mkvmerge v15.0.0 ('Duel with the Devil') 64-bit 2017-11-16 06:10:41 / mkvmerge v15.0.0 ('Duel with the Devil') 64-bit 2017-11-16 06:10:41 / UTC 2017-11-15T02:34:09Z
    FromStats_BitRate                        : 5871398
    FromStats_Duration                       : 01:38:14.806000000
    FromStats_FrameCount                     : 141334
    FromStats_StreamSize                     : 4326344712

    Audio #1
    ID                                       : 2
    Format                                   : AC-3
    Format/Info                              : Audio Coding 3
    Format settings, Endianness              : Big
    Codec ID                                 : A_AC3
    Duration                                 : 1 h 38 min
    Bit rate mode                            : Constant
    Bit rate                                 : 448 kb/s
    Channel(s)                               : 6 channels
    Channel positions                        : Front: L C R, Side: L R, LFE
    Sampling rate                            : 48.0 kHz
    Frame rate                               : 31.250 FPS (1536 SPF)
    Bit depth                                : 16 bits
    Compression mode                         : Lossy
    Stream size                              : 315 MiB (6%)
    Title                                    : Latino-AC3
    Language                                 : Spanish
    Service kind                             : Complete Main
    Default                                  : Yes
    Forced                                   : No
    Statistics Tags Issue                    : mkvmerge v15.0.0 ('Duel with the Devil') 64-bit 2017-11-16 06:10:41 / mkvmerge v15.0.0 ('Duel with the Devil') 64-bit 2017-11-16 06:10:41 / UTC 2017-11-15T02:34:09Z
    FromStats_BitRate                        : 448000
    FromStats_Duration                       : 01:38:14.848000000
    FromStats_FrameCount                     : 184214
    FromStats_StreamSize                     : 330111488

    Audio #2
    ID                                       : 3
    Format                                   : DTS
    Format/Info                              : Digital Theater Systems
    Mode                                     : 16
    Format settings, Endianness              : Big
    Codec ID                                 : A_DTS
    Duration                                 : 1 h 38 min
    Bit rate mode                            : Constant
    Bit rate                                 : 1 509 kb/s
    Channel(s)                               : 6 channels
    Channel positions                        : Front: L C R, Side: L R, LFE
    Sampling rate                            : 48.0 kHz
    Frame rate                               : 93.750 FPS (512 SPF)
    Bit depth                                : 24 bits
    Compression mode                         : Lossy
    Stream size                              : 1.04 GiB (19%)
    Title                                    : Ingles-DTS
    Language                                 : English
    Default                                  : No
    Forced                                   : No
    Statistics Tags Issue                    : mkvmerge v15.0.0 ('Duel with the Devil') 64-bit 2017-11-16 06:10:41 / mkvmerge v15.0.0 ('Duel with the Devil') 64-bit 2017-11-16 06:10:41 / UTC 2017-11-15T02:34:09Z
    FromStats_BitRate                        : 1509000
    FromStats_Duration                       : 01:38:14.816000000
    FromStats_FrameCount                     : 552639
    FromStats_StreamSize                     : 1111909668

    Text #1
    ID                                       : 4
    Format                                   : PGS
    Muxing mode                              : zlib
    Codec ID                                 : S_HDMV/PGS
    Codec ID/Info                            : Picture based subtitle format used on BDs/HD-DVDs
    Language                                 : English
    Default                                  : No
    Forced                                   : No
    Statistics Tags Issue                    : mkvmerge v15.0.0 ('Duel with the Devil') 64-bit 2017-11-16 06:10:41 / mkvmerge v15.0.0 ('Duel with the Devil') 64-bit 2017-11-16 06:10:41 / UTC 2017-11-15T02:34:09Z
    FromStats_BitRate                        : 22521
    FromStats_Duration                       : 01:34:44.053000000
    FromStats_FrameCount                     : 1856
    FromStats_StreamSize                     : 16001876

    Text #2
    ID                                       : 5
    Format                                   : PGS
    Muxing mode                              : zlib
    Codec ID                                 : S_HDMV/PGS
    Codec ID/Info                            : Picture based subtitle format used on BDs/HD-DVDs
    Language                                 : Spanish
    Default                                  : No
    Forced                                   : No
    Statistics Tags Issue                    : mkvmerge v15.0.0 ('Duel with the Devil') 64-bit 2017-11-16 06:10:41 / mkvmerge v15.0.0 ('Duel with the Devil') 64-bit 2017-11-16 06:10:41 / UTC 2017-11-15T02:34:09Z
    FromStats_BitRate                        : 18759
    FromStats_Duration                       : 01:34:35.962000000
    FromStats_FrameCount                     : 1680
    FromStats_StreamSize                     : 13309917

    Menu
    00:00:00.000                             : :Credits
    00:03:35.340                             : :Shipboard Encounters
    00:07:20.857                             : :New Year's Eve
    00:12:16.778                             : :Something's Off
    00:15:22.463                             : :Capsized
    00:19:56.570                             : :Ballroom Survivor's
    00:24:27.466                             : :A Plan and a Map
    00:28:09.771                             : :Elevator Shaft
    00:34:07.420                             : :Freeing Christian
    00:38:14.000                             : :Unlucky Larry
    00:43:04.749                             : :Fire Hose Gambit
    00:46:24.490                             : :Ballroom Breach
    00:48:18.813                             : :Air Shaft Climb
    00:55:12.309                             : :Ballast Tank
    00:59:44.831                             : :Out of Breath
    01:04:44.047                             : :Cut Off From the Bow
    01:08:43.870                             : :Separate Ways
    01:12:24.674                             : :Conor's Tight Spot
    01:15:43.247                             : :Sacrifice and Rescue
    01:20:08.220                             : :Propeller Suction
    01:23:56.907                             : :Survivors
    01:29:09.344                             : :End Credits

  • Peso: 5.39 GiB

Sinopsis

En el Atlántico Norte, a bordo del lujoso trasatlántico Poseidón (20 pisos, 13 cubiertas) comienza la fiesta de Nochevieja. Mientras tanto, una gigantesca ola de 30 metros de altura se dirige hacia la nave a gran velocidad. Los intentos para desviar el barco y evitar el choque son inútiles. La ola lo golpea con una fuerza colosal y lo vuelca. Los pasajeros y los miembros de la tripulación caen desde una gran altura y van a parar entre los restos del naufragio o se sumergen en el mar. Tras el espectacular y dramático vuelco, las tuberías de gas quedan rotas y escupen fuego, y la electricidad falla dejando grandes secciones del buque sumergidas en la oscuridad y el caos.

Ficha técnica

Video trailer de la película

Enlaces de descarga

Rip de Bluray

Descargar Poseidón (2006) Full 1080p Latino




Aportes de DPeliculasHDmega la pass es:dpeliculashdmega.org Aportes de CinemaniaHD la pass es:cinemaniahdd.com

Películas relacionadas

  • Poseído (2018) WEB-DL 1080p Latino

    2018
    Poseído (2018) WEB-DL 1080p Latino

    0.0 1h 27m 2018

    Mary está embarazada de gemelos, pero, en el parto, uno de los bebés muere. Diagnosticada con depresión...

    Director: Brandon Christensen

    Género: Suspense

    Actores: Sheila McCarthy

  • La favorita (2018) 1080p Latino

    2018
    La favorita (2018) 1080p Latino

    0.0 2h 0m 2018

    Descargar La favorita (2018) 1080p Latino, Mega, Google Drive, Torrent. Principios del siglo XVIII. Inglaterra...

    Director: Yorgos Lanthimos

    Género: Comedia

    Actores: Wilson Radjou-Pujalte

  • Painless (2017) WEB-DL 1080p Latino

    2017
    Painless (2017) WEB-DL 1080p Latino

    0.0 1h 21m 2017

    Henry Long busca desesperadamente una cura para la afección que lo deja incapaz de sentir dolor físico.

    Director: Jordan Horowitz

    Género: Drama

    Actores: Valeria Sistrunk

  • Suburra (2019) Temporada 2 NF 1080p Latino

    2017
    Suburra (2019) Temporada 2 NF 1080p Latino

    0.0 0h 52m 2017

    Suburra (2019) Temporada 2 NF 1080p Latino, En 2008, una lucha por la tierra en una ciudad costera cerca...

    Director: Daniele Cesarano

    Género: Crimen

    Actores: Giacomo Ferrara

Comentarios 0