×

¿Problemas para descargar con Mozilla, EDGE? Deshabilita la opción "Abrir vinculos en una pestaña nueva" tal como lo muestra ésta imagen.

Porky’s (1981) REMUX 1080p Latino – CMHDD

348 vistas

Información de Porky’s (1981) REMUX 1080p Latino – CMHDD

Datos de la película

  • Calidad: Full 1080p
  • Audio: Se especifica abajo de la Sinopsis
  • Subtitulos: Español Latino PGS
  • Resolución: 1920x1080p
  • Formato: MKV
  • Codec: H.264
  • Encoder: Dracarys
  • Mediainfo: Clic para Mostrar Datos Ver
  • Format                      : Matroska
    Format version              : Version 4
    File size                   : 26.8 GiB
    Duration                    : 1 h 38 min
    Overall bit rate mode       : Variable
    Overall bit rate            : 39.0 Mb/s
    Movie name                  : Porky's (1981) REMUX 1080p Latino - CMHDD
    Encoded date                : UTC 2021-01-31 02:47:03
    Writing application         : mkvmerge v51.0.0 ('I Wish') 64-bit
    Writing library             : libebml v1.4.0 + libmatroska v1.6.2

    Video
    ID                          : 1
    Format                      : AVC
    Format/Info                 : Advanced Video Codec
    Format profile              : High@L4.1
    Format settings             : CABAC / 4 Ref Frames
    Format settings, CABAC      : Yes
    Format settings, Reference  : 4 frames
    Codec ID                    : V_MPEG4/ISO/AVC
    Duration                    : 1 h 38 min
    Bit rate mode               : Variable
    Bit rate                    : 37.7 Mb/s
    Maximum bit rate            : 40.0 Mb/s
    Width                       : 1 920 pixels
    Height                      : 1 080 pixels
    Display aspect ratio        : 16:9
    Frame rate mode             : Constant
    Frame rate                  : 23.976 (24000/1001) FPS
    Color space                 : YUV
    Chroma subsampling          : 4:2:0
    Bit depth                   : 8 bits
    Scan type                   : Progressive
    Bits/(Pixel*Frame)          : 0.759
    Stream size                 : 26.0 GiB (97%)
    Default                     : Yes
    Forced                      : No

    Audio #1
    ID                          : 2
    Format                      : AC-3
    Format/Info                 : Audio Coding 3
    Commercial name             : Dolby Digital
    Codec ID                    : A_AC3
    Duration                    : 1 h 38 min
    Bit rate mode               : Constant
    Bit rate                    : 192 kb/s
    Channel(s)                  : 1 channel
    Channel layout              : C
    Sampling rate               : 48.0 kHz
    Frame rate                  : 31.250 FPS (1536 SPF)
    Compression mode            : Lossy
    Stream size                 : 135 MiB (0%)
    Language                    : Spanish
    Service kind                : Complete Main
    Default                     : Yes
    Forced                      : No

    Audio #2
    ID                          : 3
    Format                      : DTS XLL
    Format/Info                 : Digital Theater Systems
    Commercial name             : DTS-HD Master Audio
    Codec ID                    : A_DTS
    Duration                    : 1 h 38 min
    Bit rate mode               : Variable
    Bit rate                    : 1 074 kb/s
    Channel(s)                  : 1 channel
    Channel layout              : C
    Sampling rate               : 48.0 kHz
    Frame rate                  : 93.750 FPS (512 SPF)
    Bit depth                   : 24 bits
    Compression mode            : Lossless
    Stream size                 : 756 MiB (3%)
    Language                    : English
    Default                     : No
    Forced                      : No

    Text
    ID                          : 4
    Format                      : PGS
    Muxing mode                 : zlib
    Codec ID                    : S_HDMV/PGS
    Codec ID/Info               : Picture based subtitle format used on BDs/HD-DVDs
    Duration                    : 1 h 37 min
    Bit rate                    : 38.6 kb/s
    Count of elements           : 2570
    Stream size                 : 27.0 MiB (0%)
    Language                    : Spanish
    Default                     : No
    Forced                      : No

  • Peso: 26.8 GiB

Sinopsis

En Florida, durante la década de los cincuenta, un grupo de pícaros adolescentes que van juntos a la escuela descubren el sexo y el amor. Para dar rienda suelta a sus necesidades intentan entrar en Porky’s, un local de alterne, pero, al negarles la entrada el dueño del establecimiento, conciben todo tipo de gamberradas contra él. A partir de entonces le harán la vida imposible con tal de lograr tener acceso a las chicas.

 

Latino: AC3 1.0  –  Ingles: DTS-HD MA 1.0

Ficha técnica

Video trailer de la película

Enlaces de descarga

Rip de Bluray

Descargar Porky’s (1981) REMUX 1080p Latino – CMHDD


Aportes de DPeliculasHDmega la pass es:dpeliculashdmega.org Aportes de CinemaniaHD la pass es:cinemaniahdd.com
Guardado en : Comedia

Películas relacionadas

  • Hombre de familia (2000) REMUX 1080p Latino

    Hombre de familia (2000) REMUX 1080p Latino

    2000
    Hombre de familia (2000) REMUX 1080p Latino

    2h 1m 2000

    Descargar Hombre de familia (2000) REMUX 1080p Latino. Jack Campbell es un egocéntrico broker de Wall...

    Director: Robert Schroer

    Género: Comedia

    Actores: Wass Stevens

  • Te Amo Brother (2009) REMUX 1080p Latino

    Te Amo Brother (2009) REMUX 1080p Latino

    2009
    Te Amo Brother (2009) REMUX 1080p Latino

    1h 45m 2009

    Descargar Te Amo Brother (2009) REMUX 1080p Latino. Peter Klaven (Paul Rudd) es un joven que vive muy...

    Director: Scott Robertson

    Género: Comedia

    Actores: Vicki Davis

  • Asústame (2020) HD 1080p Latino

    Asústame (2020) HD 1080p Latino

    2020
    Asústame (2020) HD 1080p Latino

    1h 44m 2020

    Descargar Asústame (2020) HD 1080p Latino. Durante un corte de energía, dos extraños cuentan historias...

    Director: Josh Ruben

    Género: Comedia

    Actores: Rebecca Drysdale

  • Asústame (2020) PLACEBO Full HD 1080p Latino

    Asústame (2020) PLACEBO Full HD 1080p Latino

    2020
    Asústame (2020) PLACEBO Full HD 1080p Latino

    1h 44m 2020

    Descargar Asústame (2020) PLACEBO Full HD 1080p Latino. Durante un corte de energía, dos extraños...

    Director: Josh Ruben

    Género: Comedia

    Actores: Rebecca Drysdale

  • Asústame (2020) REMUX 1080p Latino

    Asústame (2020) REMUX 1080p Latino

    2020
    Asústame (2020) REMUX 1080p Latino

    1h 44m 2020

    Descargar Asústame (2020) REMUX 1080p Latino. Durante un corte de energía, dos extraños cuentan historias...

    Director: Josh Ruben

    Género: Comedia

    Actores: Rebecca Drysdale

descargar Porky’s (1981) REMUX 1080p Latino – CMHDD Full 1080p 1080p gratis, Porky’s (1981) REMUX 1080p Latino – CMHDD Full 1080p mega 1 link, Porky’s (1981) REMUX 1080p Latino – CMHDD Full 1080p pelicula completa, descargar Porky’s (1981) REMUX 1080p Latino – CMHDD Full 1080p gratis en mega.

Porky’s (1981) REMUX 1080p Latino – CMHDD pelicula full hd, Porky’s (1981) REMUX 1080p Latino – CMHDD mega latino, Porky’s (1981) REMUX 1080p Latino – CMHDD 4k latino, Porky’s (1981) REMUX 1080p Latino – CMHDD pelicula completa, Porky’s (1981) REMUX 1080p Latino – CMHDD descargar gratis, descargar Porky’s (1981) REMUX 1080p Latino – CMHDD pelicula latino, Porky’s (1981) REMUX 1080p Latino – CMHDD 1 link mega, Porky’s (1981) REMUX 1080p Latino – CMHDD 1 link google drive, Porky’s (1981) REMUX 1080p Latino – CMHDD hd 1080p latino.
Comentarios 0