×

¿Problemas para descargar con Mozilla, EDGE? Deshabilita la opción "Abrir vinculos en una pestaña nueva" tal como lo muestra ésta imagen.

Pobres criaturas (2023) 1080p Latino-CMHDD

65 vistas

Información de Pobres criaturas (2023) 1080p Latino-CMHDD

Datos de la película

  • Calidad: 1080p
  • Audio: Español Latino AC3 5.1 BLURAY - Ingles AC3 5.1 BLURAY
  • Subtitulos: Español Latino SRT - Ingles SRT
  • Resolución: 1920x1080p
  • Formato: MKV
  • Codec: H.264
  • Encoder: CinefiloCool
  • Mediainfo: Clic para Mostrar Datos Ver
  • Poor.Things.2023.Bluray.1080p.x264.Latino-CC@CMHDD.mkv
    Format                      : Matroska
    Format version              : Version 4
    File size                   : 4.54 GiB
    Duration                    : 2 h 21 min
    Overall bit rate            : 4 590 kb/s
    Movie name                  : Poor Things (2023) CinemaniaHDD.Net
    Encoded date                : UTC 2024-03-05 08:15:02
    Writing application         : mkvmerge v56.1.0 ('My Friend') 64-bit
    Writing library             : libebml v1.4.2 + libmatroska v1.6.4
    Attachments                 : CINEMANIAHD.png

    Video
    ID                          : 1
    Format                      : AVC
    Format/Info                 : Advanced Video Codec
    Format profile              : High@L4.1
    Format settings             : CABAC / 4 Ref Frames
    Format settings, CABAC      : Yes
    Format settings, Reference  : 4 frames
    Codec ID                    : V_MPEG4/ISO/AVC
    Duration                    : 2 h 21 min
    Bit rate                    : 3 500 kb/s
    Width                       : 1 920 pixels
    Height                      : 1 080 pixels
    Display aspect ratio        : 16:9
    Frame rate mode             : Constant
    Frame rate                  : 23.976 (24000/1001) FPS
    Color space                 : YUV
    Chroma subsampling          : 4:2:0
    Bit depth                   : 8 bits
    Scan type                   : Progressive
    Bits/(Pixel*Frame)          : 0.070
    Stream size                 : 3.46 GiB (76%)
    Title                       : HD1080p [CinemaniaHDD]
    Writing library             : x264 core 163 r3059 b684ebe0
    Encoding settings           : cabac=1 / ref=4 / deblock=1:-1:-1 / analyse=0x3:0x133 / me=umh / subme=9 / psy=1 / psy_rd=1.00:0.15 / mixed_ref=1 / me_range=16 / chroma_me=1 / trellis=2 / 8x8dct=1 / cqm=0 / deadzone=21,11 / fast_pskip=1 / chroma_qp_offset=-3 / threads=24 / lookahead_threads=2 / sliced_threads=0 / nr=0 / decimate=1 / interlaced=0 / bluray_compat=0 / constrained_intra=0 / bframes=3 / b_pyramid=2 / b_adapt=2 / b_bias=0 / direct=3 / weightb=1 / open_gop=0 / weightp=2 / keyint=240 / keyint_min=24 / scenecut=40 / intra_refresh=0 / rc_lookahead=60 / rc=abr / mbtree=1 / bitrate=3500 / ratetol=1.0 / qcomp=0.60 / qpmin=0 / qpmax=69 / qpstep=4 / vbv_maxrate=62500 / vbv_bufsize=78125 / nal_hrd=none / filler=0 / ip_ratio=1.40 / aq=1:1.00
    Default                     : Yes
    Forced                      : Yes
    Color range                 : Limited
    Color primaries             : BT.709
    Transfer characteristics    : BT.709
    Matrix coefficients         : BT.709

    Audio #1
    ID                          : 2
    Format                      : AC-3
    Format/Info                 : Audio Coding 3
    Commercial name             : Dolby Digital
    Codec ID                    : A_AC3
    Duration                    : 2 h 21 min
    Bit rate mode               : Constant
    Bit rate                    : 640 kb/s
    Channel(s)                  : 6 channels
    Channel layout              : L R C LFE Ls Rs
    Sampling rate               : 48.0 kHz
    Frame rate                  : 31.250 FPS (1536 SPF)
    Compression mode            : Lossy
    Delay relative to video     : -5 ms
    Stream size                 : 648 MiB (14%)
    Title                       : Español Latino [CinemaniaHDD]
    Language                    : Spanish
    Service kind                : Complete Main
    Default                     : Yes
    Forced                      : Yes

    Audio #2
    ID                          : 3
    Format                      : AC-3
    Format/Info                 : Audio Coding 3
    Commercial name             : Dolby Digital
    Codec ID                    : A_AC3
    Duration                    : 2 h 21 min
    Bit rate mode               : Constant
    Bit rate                    : 448 kb/s
    Channel(s)                  : 6 channels
    Channel layout              : L R C LFE Ls Rs
    Sampling rate               : 48.0 kHz
    Frame rate                  : 31.250 FPS (1536 SPF)
    Compression mode            : Lossy
    Delay relative to video     : -5 ms
    Stream size                 : 454 MiB (10%)
    Title                       : Ingles [CinemaniaHDD]
    Language                    : English
    Service kind                : Complete Main
    Default                     : No
    Forced                      : No

    Text #1
    ID                          : 4
    Format                      : UTF-8
    Codec ID                    : S_TEXT/UTF8
    Codec ID/Info               : UTF-8 Plain Text
    Duration                    : 1 h 49 min
    Bit rate                    : 0 b/s
    Count of elements           : 6
    Stream size                 : 69.0 Bytes (0%)
    Title                       : Forzados-SRT [CinemaniaHDD]
    Language                    : Spanish
    Default                     : Yes
    Forced                      : Yes

    Text #2
    ID                          : 5
    Format                      : UTF-8
    Codec ID                    : S_TEXT/UTF8
    Codec ID/Info               : UTF-8 Plain Text
    Duration                    : 2 h 19 min
    Bit rate                    : 44 b/s
    Count of elements           : 1642
    Stream size                 : 46.0 KiB (0%)
    Title                       : Español-SRT [CinemaniaHDD]
    Language                    : Spanish
    Default                     : No
    Forced                      : No

    Text #3
    ID                          : 6
    Format                      : UTF-8
    Codec ID                    : S_TEXT/UTF8
    Codec ID/Info               : UTF-8 Plain Text
    Duration                    : 2 h 10 min
    Bit rate                    : 47 b/s
    Count of elements           : 1781
    Stream size                 : 45.6 KiB (0%)
    Title                       : Ingles-SRT [CinemaniaHDD]
    Language                    : English
    Default                     : No
    Forced                      : No

    Menu
    00:00:00.000                : :Chapter 1
    00:04:46.036                : :Chapter 2
    00:08:06.695                : :Chapter 3
    00:11:07.167                : :Chapter 4
    00:15:37.437                : :Chapter 5
    00:20:03.160                : :Chapter 6
    00:25:37.828                : :Chapter 7
    00:31:30.806                : :Chapter 8
    00:36:49.124                : :Chapter 9
    00:41:02.502                : :Chapter 10
    00:48:25.069                : :Chapter 11
    00:51:24.915                : :Chapter 12
    00:59:02.998                : :Chapter 13
    01:04:47.675                : :Chapter 14
    01:09:34.796                : :Chapter 15
    01:15:47.293                : :Chapter 16
    01:22:31.155                : :Chapter 17
    01:24:10.420                : :Chapter 18
    01:30:57.369                : :Chapter 19
    01:37:16.456                : :Chapter 20
    01:43:33.457                : :Chapter 21
    01:45:19.271                : :Chapter 22
    01:48:23.539                : :Chapter 23
    01:51:11.415                : :Chapter 24
    01:58:15.297                : :Chapter 25
    02:11:38.682                : :Chapter 26
    02:15:59.151                : :Chapter 27

  • Peso: 4.54 GiB

Sinopsis

Descargar Pobres criaturas (2023) 1080p Latino-CMHDD. Bella Baxter es una joven revivida por el brillante y poco ortodoxo científico Dr. Godwin Baxter. Bajo la protección de Baxter, Bella está ansiosa por aprender. Hambrienta de la mundanidad que le falta, Bella se escapa con Duncan Wedderburn, un sofisticado y perverso abogado, en una aventura vertiginosa a través de los continentes. Libre de los prejuicios de su época, Bella se vuelve firme en su propósito de defender la igualdad y la liberación.

Ficha técnica

Video trailer de la película

Enlaces de descarga

Rip de Bluray

Descargar Pobres criaturas (2023) 1080p Latino-CMHDD




Aportes de DPeliculasHDmega la pass es:dpeliculashdmega.org Aportes de CinemaniaHD la pass es:cinemaniahdd.com Aportes recientes:cinemaniahdd.net

Películas relacionadas

descargar Pobres criaturas (2023) 1080p Latino-CMHDD 1080p 1080p gratis, Pobres criaturas (2023) 1080p Latino-CMHDD 1080p mega 1 link, Pobres criaturas (2023) 1080p Latino-CMHDD 1080p pelicula completa, descargar Pobres criaturas (2023) 1080p Latino-CMHDD 1080p gratis en mega.

Pobres criaturas (2023) 1080p Latino-CMHDD pelicula full hd, Pobres criaturas (2023) 1080p Latino-CMHDD mega latino, Pobres criaturas (2023) 1080p Latino-CMHDD 4k latino, Pobres criaturas (2023) 1080p Latino-CMHDD pelicula completa, Pobres criaturas (2023) 1080p Latino-CMHDD descargar gratis, descargar Pobres criaturas (2023) 1080p Latino-CMHDD pelicula latino, Pobres criaturas (2023) 1080p Latino-CMHDD 1 link mega, Pobres criaturas (2023) 1080p Latino-CMHDD 1 link google drive, Pobres criaturas (2023) 1080p Latino-CMHDD hd 1080p latino.
Comentarios 0