×

¿Problemas para descargar con Mozilla, EDGE? Deshabilita la opción "Abrir vinculos en una pestaña nueva" tal como lo muestra ésta imagen.

Poltergeist (1982) REMASTERED REMUX 1080p Latino-CMHDD

339 vistas

Información de Poltergeist (1982) REMASTERED REMUX 1080p Latino-CMHDD

Datos de la película

  • Calidad: Full 1080p
  • Audio: Español Latino AC3 2.0 BLURAY - Ingles DTS 5.1 BLURAY
  • Subtitulos: Español Latino PGS - Ingles PGS
  • Resolución: 1920x1080p
  • Formato: MKV
  • Codec: H.264
  • Encoder: Dracarys | CinefiloCool
  • Mediainfo: Clic para Mostrar Datos Ver
  • Poltergeist (1982) REMASTERED REMUX 1080p Latino-CMHDD.mkv
    Format                      : Matroska
    Format version              : Version 4
    File size                   : 31.0 GiB
    Duration                    : 1 h 54 min
    Overall bit rate mode       : Variable
    Overall bit rate            : 38.8 Mb/s
    Movie name                  : Poltergeist (1982) CinemaniaHDD.Net
    Encoded date                : UTC 2023-09-25 22:24:55
    Writing application         : mkvmerge v56.1.0 ('My Friend') 64-bit
    Writing library             : libebml v1.4.2 + libmatroska v1.6.4
    Cover                       : Yes
    Attachments                 : cover.jpg

    Video
    ID                          : 1
    ID in the original source m : 4113 (0x1011)
    Format                      : AVC
    Format/Info                 : Advanced Video Codec
    Format profile              : High@L4.1
    Format settings             : CABAC / 4 Ref Frames
    Format settings, CABAC      : Yes
    Format settings, Reference  : 4 frames
    Codec ID                    : V_MPEG4/ISO/AVC
    Duration                    : 1 h 54 min
    Bit rate mode               : Variable
    Bit rate                    : 35.2 Mb/s
    Maximum bit rate            : 36.5 Mb/s
    Width                       : 1 920 pixels
    Height                      : 1 080 pixels
    Display aspect ratio        : 16:9
    Frame rate mode             : Constant
    Frame rate                  : 23.976 (24000/1001) FPS
    Color space                 : YUV
    Chroma subsampling          : 4:2:0
    Bit depth                   : 8 bits
    Scan type                   : Progressive
    Bits/(Pixel*Frame)          : 0.707
    Stream size                 : 28.1 GiB (90%)
    Title                       : REMUX HD1080p [CinemaniaHDD]
    Default                     : Yes
    Forced                      : Yes
    Original source medium      : Blu-ray

    Audio #1
    ID                          : 2
    ID in the original source m : 4358 (0x1106)
    Format                      : AC-3
    Format/Info                 : Audio Coding 3
    Commercial name             : Dolby Digital
    Format settings             : Dolby Surround
    Codec ID                    : A_AC3
    Duration                    : 1 h 54 min
    Bit rate mode               : Constant
    Bit rate                    : 192 kb/s
    Channel(s)                  : 2 channels
    Channel layout              : L R
    Sampling rate               : 48.0 kHz
    Frame rate                  : 31.250 FPS (1536 SPF)
    Compression mode            : Lossy
    Stream size                 : 157 MiB (0%)
    Title                       : Español Latino [CinemaniaHDD]
    Language                    : Spanish
    Service kind                : Complete Main
    Default                     : Yes
    Forced                      : Yes
    Original source medium      : Blu-ray

    Audio #2
    ID                          : 3
    ID in the original source m : 4352 (0x1100)
    Format                      : DTS XLL
    Format/Info                 : Digital Theater Systems
    Commercial name             : DTS-HD Master Audio
    Codec ID                    : A_DTS
    Duration                    : 1 h 54 min
    Bit rate mode               : Variable
    Bit rate                    : 3 481 kb/s
    Channel(s)                  : 6 channels
    Channel layout              : C L R Ls Rs LFE
    Sampling rate               : 48.0 kHz
    Frame rate                  : 93.750 FPS (512 SPF)
    Bit depth                   : 24 bits
    Compression mode            : Lossless
    Stream size                 : 2.78 GiB (9%)
    Title                       : Ingles [CinemaniaHDD]
    Language                    : English
    Default                     : No
    Forced                      : No
    Original source medium      : Blu-ray

    Text #1
    ID                          : 4
    ID in the original source m : 4624 (0x1210)
    Format                      : PGS
    Muxing mode                 : zlib
    Codec ID                    : S_HDMV/PGS
    Codec ID/Info               : Picture based subtitle format used on BDs/HD-DVDs
    Duration                    : 41 min 15 s
    Bit rate                    : 373 b/s
    Count of elements           : 6
    Stream size                 : 113 KiB (0%)
    Title                       : Forzados-PGS [CinemaniaHDD]
    Language                    : Spanish
    Default                     : No
    Forced                      : No
    Original source medium      : Blu-ray

    Text #2
    ID                          : 5
    ID in the original source m : 4614 (0x1206)
    Format                      : PGS
    Muxing mode                 : zlib
    Codec ID                    : S_HDMV/PGS
    Codec ID/Info               : Picture based subtitle format used on BDs/HD-DVDs
    Duration                    : 1 h 53 min
    Bit rate                    : 25.8 kb/s
    Count of elements           : 2236
    Stream size                 : 21.0 MiB (0%)
    Title                       : Español-PGS [CinemaniaHDD]
    Language                    : Spanish
    Default                     : No
    Forced                      : No
    Original source medium      : Blu-ray

    Text #3
    ID                          : 6
    ID in the original source m : 4608 (0x1200)
    Format                      : PGS
    Muxing mode                 : zlib
    Codec ID                    : S_HDMV/PGS
    Codec ID/Info               : Picture based subtitle format used on BDs/HD-DVDs
    Duration                    : 1 h 53 min
    Bit rate                    : 32.6 kb/s
    Count of elements           : 2902
    Stream size                 : 26.6 MiB (0%)
    Title                       : Ingles [CinemaniaHDD]
    Language                    : English
    Default                     : No
    Forced                      : No
    Original source medium      : Blu-ray

    Text #4
    ID                          : 7
    Format                      : UTF-8
    Codec ID                    : S_TEXT/UTF8
    Codec ID/Info               : UTF-8 Plain Text
    Duration                    : 1 h 49 min
    Bit rate                    : 0 b/s
    Count of elements           : 5
    Stream size                 : 155 Bytes (0%)
    Title                       : Forzados-SRT [CinemaniaHDD]
    Language                    : Spanish
    Default                     : Yes
    Forced                      : Yes

    Text #5
    ID                          : 8
    Format                      : UTF-8
    Codec ID                    : S_TEXT/UTF8
    Codec ID/Info               : UTF-8 Plain Text
    Duration                    : 1 h 49 min
    Bit rate                    : 41 b/s
    Count of elements           : 996
    Stream size                 : 32.8 KiB (0%)
    Title                       : Español-SRT [CinemaniaHDD]
    Language                    : Spanish
    Default                     : No
    Forced                      : No

    Menu
    00:00:00.000                : Chapter 01
    00:04:38.278                : Chapter 02
    00:07:00.253                : Chapter 03
    00:11:45.079                : Chapter 04
    00:16:44.378                : Chapter 05
    00:21:24.616                : Chapter 06
    00:24:33.305                : Chapter 07
    00:28:43.054                : Chapter 08
    00:34:14.427                : Chapter 09
    00:37:15.733                : Chapter 10
    00:42:46.063                : Chapter 11
    00:45:46.618                : Chapter 12
    00:50:25.522                : Chapter 13
    00:53:34.711                : Chapter 14
    00:59:45.290                : Chapter 15
    01:03:12.121                : Chapter 16
    01:07:23.706                : Chapter 17
    01:11:13.435                : Chapter 18
    01:14:10.612                : Chapter 19
    01:16:40.596                : Chapter 20
    01:22:01.249                : Chapter 21
    01:24:56.424                : Chapter 22
    01:29:05.673                : Chapter 23
    01:33:02.910                : Chapter 24
    01:35:36.897                : Chapter 25
    01:38:55.930                : Chapter 26
    01:42:17.965                : Chapter 27
    01:45:47.341                : Chapter 28
    01:47:38.285                : Chapter 29
    01:49:40.407                : Chapter 30

  • Peso: 31,0 GiB

Sinopsis

Descargar Poltergeist (1982) REMASTERED REMUX 1080p Latino-CMHDD. Una familia americana de clase media se traslada a vivir e una nueva casa en un aparentemente idílico barrio, pero dentro de la casa comienzan a suceder cosas extrañas, fenómenos paranormales para los que no hay explicación posible.

Ficha técnica

Video trailer de la película

Enlaces de descarga

Rip de Bluray

Descargar Poltergeist (1982) REMASTERED REMUX 1080p Latino-CMHDD


Aportes de DPeliculasHDmega la pass es:dpeliculashdmega.org Aportes de CinemaniaHD la pass es:cinemaniahdd.com Aportes recientes:cinemaniahdd.net
Guardado en : Remux , Terror

Películas relacionadas

  • El Fin de Los Tiempos (2008) REMUX 1080p Latino-CMHDD

    El Fin de Los Tiempos (2008) REMUX 1080p Latino-CMHDD

    2008
    El Fin de Los Tiempos (2008) REMUX 1080p Latino-CMHDD

    1h 30m 2008

    Descargar El Fin de Los Tiempos (2008) REMUX 1080p Latino-CMHDD. En unos minutos, en las principales...

    Director: M. Night Shyamalan

    Género: Ciencia ficción

    Actores: Zooey Deschanel

  • Victor Frankenstein (2015) REMUX 1080p Latino-CMHDD

    Victor Frankenstein (2015) REMUX 1080p Latino-CMHDD

    2015
    Victor Frankenstein (2015) REMUX 1080p Latino-CMHDD

    1h 50m 2015

    Descargar Victor Frankenstein (2015) REMUX 1080p Latino-CMHDD. En los ambiciosos planes del doctor para...

    Director: Toby Ford

    Género: Ciencia ficción

    Actores: Will Keen

  • Loco Por Ella (2010) REMUX 1080p Latino-CMHDD

    Loco Por Ella (2010) REMUX 1080p Latino-CMHDD

    2010
    Loco Por Ella (2010) REMUX 1080p Latino-CMHDD

    1h 39m 2010

    Descargar Loco Por Ella (2010) REMUX 1080p Latino-CMHDD. Cuando Kassie (Jennifer Aniston) cumple los...

    Director: Will Speck

    Género: Comedia

    Actores: Will Swenson

  • iZombie (2016) Temporada 02 REMUX 1080p Latino

    iZombie (2016) Temporada 02 REMUX 1080p Latino

    2015
    iZombie (2016) Temporada 02 REMUX 1080p Latino

    0h 42m 2015

    Descargar iZombie (2016) Temporada 02 REMUX 1080p Latino. Gira en torno a una estudiante de medicina...

    Director: Rob Thomas

    Género: Crimen

    Actores: Rose McIver

descargar Poltergeist (1982) REMASTERED REMUX 1080p Latino-CMHDD Full 1080p 1080p gratis, Poltergeist (1982) REMASTERED REMUX 1080p Latino-CMHDD Full 1080p mega 1 link, Poltergeist (1982) REMASTERED REMUX 1080p Latino-CMHDD Full 1080p pelicula completa, descargar Poltergeist (1982) REMASTERED REMUX 1080p Latino-CMHDD Full 1080p gratis en mega.

Poltergeist (1982) REMASTERED REMUX 1080p Latino-CMHDD pelicula full hd, Poltergeist (1982) REMASTERED REMUX 1080p Latino-CMHDD mega latino, Poltergeist (1982) REMASTERED REMUX 1080p Latino-CMHDD 4k latino, Poltergeist (1982) REMASTERED REMUX 1080p Latino-CMHDD pelicula completa, Poltergeist (1982) REMASTERED REMUX 1080p Latino-CMHDD descargar gratis, descargar Poltergeist (1982) REMASTERED REMUX 1080p Latino-CMHDD pelicula latino, Poltergeist (1982) REMASTERED REMUX 1080p Latino-CMHDD 1 link mega, Poltergeist (1982) REMASTERED REMUX 1080p Latino-CMHDD 1 link google drive, Poltergeist (1982) REMASTERED REMUX 1080p Latino-CMHDD hd 1080p latino.
Comentarios 0