Policías de repuesto (2010) Full 1080p Latino

1.900 vistas
1 estrella2 estrellas3 estrellas4 estrellas5 estrellas (3 votos, promedio: 5,00 de 5)
Cargando…

Información de Policías de repuesto (2010) Full 1080p Latino

Datos de la película

  • Calidad: Full 1080p
  • Audio: Español Latino AC3 5.1 BLURAY - Ingles DTS 5.1 BLURAY
  • Subtitulos: Español Latino PGS - Ingles PGS
  • Resolución: 1920X1080p
  • Formato: MKV
  • Codec: H.264
  • Encoder: Dracarys
  • Mediainfo: Clic para Mostrar Datos Ver
  • Format                                   : Matroska
    Format version                           : Version 4 / Version 2
    File size                                : 6.70 GiB
    Duration                                 : 1 h 47 min
    Overall bit rate                         : 8 926 kb/s
    Movie name                               : CinemaniaHDD.com
    Encoded date                             : UTC 2018-01-24 18:02:12 / UTC 2017-12-23T17:38:05Z
    Writing application                      : mkvmerge v15.0.0 ('Duel with the Devil') 64-bit
    Writing library                          : libebml v1.3.5 + libmatroska v1.4.5 / Lavf57.7.2

    Video
    ID                                       : 1
    Format                                   : AVC
    Format/Info                              : Advanced Video Codec
    Format profile                           : High@L4.1
    Format settings                          : CABAC / 4 Ref Frames
    Format settings, CABAC                   : Yes
    Format settings, RefFrames               : 4 frames
    Codec ID                                 : V_MPEG4/ISO/AVC
    Duration                                 : 1 h 47 min
    Bit rate                                 : 6 599 kb/s
    Width                                    : 1 920 pixels
    Height                                   : 1 080 pixels
    Display aspect ratio                     : 16:9
    Frame rate mode                          : Constant
    Frame rate                               : 23.976 (24000/1001) FPS
    Color space                              : YUV
    Chroma subsampling                       : 4:2:0
    Bit depth                                : 8 bits
    Scan type                                : Progressive
    Bits/(Pixel*Frame)                       : 0.133
    Stream size                              : 4.95 GiB (74%)
    Title                                    : Policías de repuesto (2010) Full 1080p Latino
    Writing library                          : x264 core 148 r2708 86b7198
    Encoding settings                        : cabac=1 / ref=4 / deblock=1:0:0 / analyse=0x3:0x133 / me=esa / subme=10 / psy=1 / psy_rd=1.00:0.00 / mixed_ref=1 / me_range=24 / chroma_me=1 / trellis=2 / 8x8dct=1 / cqm=0 / deadzone=21,11 / fast_pskip=1 / chroma_qp_offset=-2 / threads=34 / lookahead_threads=5 / sliced_threads=0 / nr=0 / decimate=1 / interlaced=0 / bluray_compat=0 / constrained_intra=0 / bframes=8 / b_pyramid=2 / b_adapt=2 / b_bias=0 / direct=3 / weightb=1 / open_gop=0 / weightp=2 / keyint=240 / keyint_min=24 / scenecut=40 / intra_refresh=0 / rc_lookahead=60 / rc=crf / mbtree=1 / crf=20.0 / qcomp=0.60 / qpmin=0 / qpmax=69 / qpstep=4 / vbv_maxrate=62500 / vbv_bufsize=78125 / crf_max=0.0 / nal_hrd=none / filler=0 / ip_ratio=1.40 / aq=1:1.00
    Language                                 : English
    Default                                  : Yes
    Forced                                   : No
    Color range                              : Limited
    Color primaries                          : BT.709
    Transfer characteristics                 : BT.709
    Matrix coefficients                      : BT.709
    Statistics Tags Issue                    : mkvmerge v15.0.0 ('Duel with the Devil') 64-bit 2018-01-24 18:02:12 / mkvmerge v15.0.0 ('Duel with the Devil') 64-bit 2018-01-24 18:02:12 / UTC 2017-12-23T17:38:05Z
    FromStats_BitRate                        : 6741115
    FromStats_Duration                       : 01:47:27.441000000
    FromStats_FrameCount                     : 154584
    FromStats_StreamSize                     : 5432867734

    Audio #1
    ID                                       : 2
    Format                                   : AC-3
    Format/Info                              : Audio Coding 3
    Format settings, Endianness              : Big
    Codec ID                                 : A_AC3
    Duration                                 : 1 h 47 min
    Bit rate mode                            : Constant
    Bit rate                                 : 640 kb/s
    Channel(s)                               : 6 channels
    Channel positions                        : Front: L C R, Side: L R, LFE
    Sampling rate                            : 48.0 kHz
    Frame rate                               : 31.250 FPS (1536 SPF)
    Bit depth                                : 16 bits
    Compression mode                         : Lossy
    Delay relative to video                  : 24 ms
    Stream size                              : 492 MiB (7%)
    Language                                 : Spanish
    Service kind                             : Complete Main
    Default                                  : Yes
    Forced                                   : No
    Statistics Tags Issue                    : mkvmerge v15.0.0 ('Duel with the Devil') 64-bit 2018-01-24 18:02:12 / mkvmerge v15.0.0 ('Duel with the Devil') 64-bit 2018-01-24 18:02:12 / UTC 2017-12-23T17:38:05Z
    FromStats_BitRate                        : 640000
    FromStats_Duration                       : 01:47:27.424000000
    FromStats_FrameCount                     : 201482
    FromStats_StreamSize                     : 515793920

    Audio #2
    ID                                       : 3
    Format                                   : DTS
    Format/Info                              : Digital Theater Systems
    Mode                                     : 16
    Format settings, Endianness              : Big
    Codec ID                                 : A_DTS
    Duration                                 : 1 h 47 min
    Bit rate mode                            : Constant
    Bit rate                                 : 1 509 kb/s
    Channel(s)                               : 6 channels
    Channel positions                        : Front: L C R, Side: L R, LFE
    Sampling rate                            : 48.0 kHz
    Frame rate                               : 93.750 FPS (512 SPF)
    Bit depth                                : 24 bits
    Compression mode                         : Lossy
    Stream size                              : 1.13 GiB (17%)
    Language                                 : Spanish
    Default                                  : No
    Forced                                   : No
    Statistics Tags Issue                    : mkvmerge v15.0.0 ('Duel with the Devil') 64-bit 2018-01-24 18:02:12 / mkvmerge v15.0.0 ('Duel with the Devil') 64-bit 2018-01-24 18:02:12 / UTC 2017-12-23T17:38:05Z
    FromStats_BitRate                        : 1508999
    FromStats_Duration                       : 01:47:27.446000000
    FromStats_FrameCount                     : 604448
    FromStats_StreamSize                     : 1216149376

    Text #1
    ID                                       : 4
    Format                                   : PGS
    Muxing mode                              : zlib
    Codec ID                                 : S_HDMV/PGS
    Codec ID/Info                            : Picture based subtitle format used on BDs/HD-DVDs
    Language                                 : English
    Default                                  : No
    Forced                                   : No
    Statistics Tags Issue                    : mkvmerge v15.0.0 ('Duel with the Devil') 64-bit 2018-01-24 18:02:12 / mkvmerge v15.0.0 ('Duel with the Devil') 64-bit 2018-01-24 18:02:12 / UTC 2017-12-23T17:38:05Z
    FromStats_BitRate                        : 60688
    FromStats_Duration                       : 01:46:32.720000000
    FromStats_FrameCount                     : 3617
    FromStats_StreamSize                     : 48495910

    Text #2
    ID                                       : 5
    Format                                   : PGS
    Muxing mode                              : zlib
    Codec ID                                 : S_HDMV/PGS
    Codec ID/Info                            : Picture based subtitle format used on BDs/HD-DVDs
    Language                                 : Spanish
    Default                                  : No
    Forced                                   : No
    Statistics Tags Issue                    : mkvmerge v15.0.0 ('Duel with the Devil') 64-bit 2018-01-24 18:02:12 / mkvmerge v15.0.0 ('Duel with the Devil') 64-bit 2018-01-24 18:02:12 / UTC 2017-12-23T17:38:05Z
    FromStats_BitRate                        : 50911
    FromStats_Duration                       : 01:46:32.845000000
    FromStats_FrameCount                     : 3631
    FromStats_StreamSize                     : 40683849

    Menu
    00:00:00.000                             : :00:00:00.000
    00:09:15.805                             : :00:09:15.805
    00:13:24.595                             : :00:13:24.595
    00:18:59.138                             : :00:18:59.138
    00:26:06.732                             : :00:26:06.732
    00:31:09.326                             : :00:31:09.326
    00:35:42.766                             : :00:35:42.766
    00:41:16.975                             : :00:41:16.974
    00:48:16.310                             : :00:48:16.310
    00:55:32.621                             : :00:55:32.621
    01:01:22.429                             : :01:01:22.429
    01:09:32.001                             : :01:09:32.001
    01:17:23.013                             : :01:17:23.013
    01:23:43.560                             : :01:23:43.560
    01:30:27.881                             : :01:30:27.881
    01:36:43.381                             : :01:36:43.381

  • Peso: 6.70 GiB

Sinopsis

Allen Gamble y Terry Hoitz son un par de policías de Nueva York que viven a la sombra de los héroes del cuerpo, los superagentes Christopher Danson y P.K. Highsmith. Pero cuando las cosas se tuerzan en la gran manzana, esta peculiar pareja tendrá que levantar sus traseros del despacho de la comisaría y entrar en acción.

Ficha técnica

Video trailer de la película

Enlaces de descarga

Rip de Bluray

Descargar Policías de repuesto (2010) Full 1080p Latino




Aportes de DPeliculasHDmega la pass es:dpeliculashdmega.org Aportes de CinemaniaHD la pass es:cinemaniahdd.com

Películas relacionadas

  • Arrow (2018) Temporada 07 AMZN Web-DL 1080p Latino

    2012
    Arrow (2018) Temporada 07 AMZN Web-DL 1080p Latino

    2.7 0h 42m 2012

    Descargar Arrow Temporada 07 AMZN Web-DL 1080p Latino; Mega, Google Drive. No ha habido escasez de llamadas...

    Director: Marc Guggenheim

    Género: Action & Adventure

    Actores: Stephen Amell

  • El Justiciero 2 (2018) 1080p Latino

    2018
    El Justiciero 2 (2018) 1080p Latino

    1.0 2h 0m 2018

    Descargar El Justiciero 2 (2018) 1080p Latino, Mega, Google Drive. Robert McCall (Denzel Washington)...

    Director: Donald Sparks

    Género: Acción

    Actores: Wesley Pereira

  • Kin (2018) Full 1080p Latino

    2018
    Kin (2018) Full 1080p Latino

    5.0 1h 42m 2018

    Perseguidos por un criminal vengativo (James Franco) y una banda de soldados sobrenaturales,​ un exconvicto...

    Director: Josh Baker

    Género: Acción

    Actores: Zoë Kravitz

  • Los increíbles 2 (2018) Full 1080p Latino

    2018
    Los increíbles 2 (2018) Full 1080p Latino

    5.0 1h 58m 2018

    Helen tiene que liderar una campaña para que los superhéroes regresen, mientras Bob vive su vida "normal"...

    Director: Seong-Young Kim

    Género: Acción

    Actores: Usher

Comentarios 7
  • David - 23 mayo, 2018

    Podrian decirme cual es la contraseña? Probe con cinemaniahdd.net pero no funciona

    • Dracarys - 23 mayo, 2018

      cinemaniahdd.com

  • Simon - 25 enero, 2018

    por favor suban la version ligera, esta pelicula no esta por ningun lado en calidad hd, ustedes la subieron pero lamentablemente pesa demasiado.

    • Dracarys - 25 enero, 2018

      Se subira pronto Saludos.

  • Ariel - 25 enero, 2018

    Tremenda pelicula de comedia, la estuve buscando por todos lados… Son los mejores…

  • snj - 24 enero, 2018

    Hola
    pueden subir la versión extendida?

    • Dracarys - 29 enero, 2018

      posiblemente