×

¿Problemas para descargar con Mozilla, EDGE? Deshabilita la opción "Abrir vinculos en una pestaña nueva" tal como lo muestra ésta imagen.

Pokémon: Mewtwo contraataca: Evolución (2020) NF WEB-DL 1080p Latino

1.888 vistas

Información de Pokémon: Mewtwo contraataca: Evolución (2020) NF WEB-DL 1080p Latino

Datos de la película

  • Calidad: WEBDL
  • Audio: Español Latino AC3 5.1 Netflix - Ingles AC3 5.1 Netflix
  • Subtitulos: Español Latino SRT- FORZADOS SRT
  • Resolución: 1920x1080
  • Formato: MKV
  • Codec: H.264
  • Encoder: cinemaniahdd
  • Mediainfo: Clic para Mostrar Datos Ver
  • Pokémon, Mewtwo contraataca - Evolución (2020) NF WEB-DL 1080p Latino.mkv
    Format                      : Matroska
    Format version              : Version 4
    File size                   : 5.11 GiB
    Duration                    : 1 h 37 min
    Overall bit rate mode       : Variable
    Overall bit rate            : 7 473 kb/s
    Movie name                  : Pokémon, Mewtwo contraataca - Evolución (2020) - CinemaniaHDD.Net
    Encoded date                : UTC 2020-02-27 09:36:27
    Writing application         : mkvmerge v42.0.0 ('Overtime') 64-bit
    Writing library             : libebml v1.3.10 + libmatroska v1.5.2

    Video
    ID                          : 1
    Format                      : AVC
    Format/Info                 : Advanced Video Codec
    Format profile              : Main@L4
    Format settings             : CABAC / 3 Ref Frames
    Format settings, CABAC      : Yes
    Format settings, ReFrames   : 3 frames
    Codec ID                    : V_MPEG4/ISO/AVC
    Duration                    : 1 h 37 min
    Bit rate mode               : Variable
    Bit rate                    : 6 810 kb/s
    Maximum bit rate            : 10.2 Mb/s
    Width                       : 1 920 pixels
    Height                      : 1 080 pixels
    Display aspect ratio        : 16:9
    Frame rate mode             : Constant
    Frame rate                  : 23.976 (24000/1001) FPS
    Color space                 : YUV
    Chroma subsampling          : 4:2:0
    Bit depth                   : 8 bits
    Scan type                   : Progressive
    Bits/(Pixel*Frame)          : 0.137
    Stream size                 : 4.58 GiB (90%)
    Title                       : CinemaniaHDD
    Writing library             : x264 core 148 r2717 0d2410d
    Encoding settings           : cabac=1 / ref=3 / deblock=1:0:0 / analyse=0x1:0x111 / me=umh / subme=10 / psy=1 / psy_rd=1.00:0.00 / mixed_ref=1 / me_range=24 / chroma_me=1 / trellis=2 / 8x8dct=0 / cqm=0 / deadzone=21,11 / fast_pskip=1 / chroma_qp_offset=-2 / threads=8 / lookahead_threads=1 / sliced_threads=0 / nr=0 / decimate=1 / interlaced=0 / bluray_compat=0 / stitchable=1 / constrained_intra=0 / bframes=2 / b_pyramid=0 / b_adapt=2 / b_bias=0 / direct=3 / weightb=1 / open_gop=0 / weightp=2 / keyint=250 / keyint_min=23 / scenecut=0 / intra_refresh=0 / rc_lookahead=48 / rc=2pass / mbtree=1 / bitrate=6810 / ratetol=1.0 / qcomp=0.50 / qpmin=6 / qpmax=51 / qpstep=4 / cplxblur=20.0 / qblur=0.5 / vbv_maxrate=10215 / vbv_bufsize=13620 / nal_hrd=vbr / filler=0 / ip_ratio=1.40 / aq=1:1.00
    Default                     : Yes
    Forced                      : No

    Audio #1
    ID                          : 2
    Format                      : AC-3
    Format/Info                 : Audio Coding 3
    Commercial name             : Dolby Digital
    Codec ID                    : A_AC3
    Duration                    : 1 h 37 min
    Bit rate mode               : Constant
    Bit rate                    : 384 kb/s
    Channel(s)                  : 6 channels
    Channel layout              : L R C LFE Ls Rs
    Sampling rate               : 48.0 kHz
    Frame rate                  : 31.250 FPS (1536 SPF)
    Bit depth                   : 16 bits
    Compression mode            : Lossy
    Stream size                 : 269 MiB (5%)
    Title                       : Español latino [CinemaniaHDD]
    Language                    : Spanish
    Service kind                : Complete Main
    Default                     : Yes
    Forced                      : No

    Audio #2
    ID                          : 3
    Format                      : AC-3
    Format/Info                 : Audio Coding 3
    Commercial name             : Dolby Digital
    Codec ID                    : A_AC3
    Duration                    : 1 h 37 min
    Bit rate mode               : Constant
    Bit rate                    : 384 kb/s
    Channel(s)                  : 6 channels
    Channel layout              : L R C LFE Ls Rs
    Sampling rate               : 48.0 kHz
    Frame rate                  : 31.250 FPS (1536 SPF)
    Bit depth                   : 16 bits
    Compression mode            : Lossy
    Stream size                 : 269 MiB (5%)
    Title                       : Inglés [CinemaniaHDD]
    Language                    : English
    Service kind                : Complete Main
    Default                     : No
    Forced                      : No

    Text #1
    ID                          : 4
    Format                      : UTF-8
    Codec ID                    : S_TEXT/UTF8
    Codec ID/Info               : UTF-8 Plain Text
    Duration                    : 3 s 462 ms
    Bit rate                    : 76 b/s
    Count of elements           : 1
    Stream size                 : 33.0 Bytes (0%)
    Title                       : Forzados [CinemaniaHDD]
    Language                    : Spanish
    Default                     : Yes
    Forced                      : Yes

    Text #2
    ID                          : 5
    Format                      : UTF-8
    Codec ID                    : S_TEXT/UTF8
    Codec ID/Info               : UTF-8 Plain Text
    Duration                    : 1 h 31 min
    Bit rate                    : 30 b/s
    Count of elements           : 578
    Stream size                 : 20.2 KiB (0%)
    Title                       : Español latino [CinemaniaHDD]
    Language                    : Spanish
    Default                     : No
    Forced                      : No

     

  • Peso: 5.11 GiB

Sinopsis

La aventura comienza con el nacimiento del Pokémon más poderoso del mundo, creado por ingeniería genética utilizando el ADN del legendario Pókemon Mew. Determinado a probar su superioridad, Mewtwo reta a Ash, Pikachu y los mejores entrenadores a una competición de Pókemon como no ha habido otra igual.

Ficha técnica

Video trailer de la película

Enlaces de descarga

Rip de Bluray

Descargar Pokémon: Mewtwo contraataca: Evolución (2020) NF WEB-DL 1080p Latino




Aportes de DPeliculasHDmega la pass es:dpeliculashdmega.org Aportes de CinemaniaHD la pass es:cinemaniahdd.com

Películas relacionadas

descargar Pokémon: Mewtwo contraataca: Evolución (2020) NF WEB-DL 1080p Latino WEBDL 1080p gratis, Pokémon: Mewtwo contraataca: Evolución (2020) NF WEB-DL 1080p Latino WEBDL mega 1 link, Pokémon: Mewtwo contraataca: Evolución (2020) NF WEB-DL 1080p Latino WEBDL pelicula completa, descargar Pokémon: Mewtwo contraataca: Evolución (2020) NF WEB-DL 1080p Latino WEBDL gratis en mega.

Pokémon: Mewtwo contraataca: Evolución (2020) NF WEB-DL 1080p Latino pelicula full hd, Pokémon: Mewtwo contraataca: Evolución (2020) NF WEB-DL 1080p Latino mega latino, Pokémon: Mewtwo contraataca: Evolución (2020) NF WEB-DL 1080p Latino 4k latino, Pokémon: Mewtwo contraataca: Evolución (2020) NF WEB-DL 1080p Latino pelicula completa, Pokémon: Mewtwo contraataca: Evolución (2020) NF WEB-DL 1080p Latino descargar gratis, descargar Pokémon: Mewtwo contraataca: Evolución (2020) NF WEB-DL 1080p Latino pelicula latino, Pokémon: Mewtwo contraataca: Evolución (2020) NF WEB-DL 1080p Latino 1 link mega, Pokémon: Mewtwo contraataca: Evolución (2020) NF WEB-DL 1080p Latino 1 link google drive, Pokémon: Mewtwo contraataca: Evolución (2020) NF WEB-DL 1080p Latino hd 1080p latino.
Comentarios 0