Pokémon indigo league (2000) Temporada 1 WEB-DL 1080p Latino

83 vistas
1 estrella2 estrellas3 estrellas4 estrellas5 estrellas (2 votos, promedio: 5,00 de 5)
Cargando...

Información de Pokémon indigo league (2000) Temporada 1 WEB-DL 1080p Latino

Datos de la película

  • Calidad: WEBDL
  • Audio: Español Latino AC3 2.0 - Ingles AC3 2.0
  • Subtitulos: Español Latino SRT
  • Resolución: 1440x1080
  • Formato: MKV
  • Codec: H.264
  • Encoder: cinemaniahdd
  • Mediainfo: Clic para Mostrar Datos Ver
  • Pokemon Liga indigo T01E01 WEB-DL 1080p Latino [CNMNHDD].mkv
    Format                      : Matroska
    Format version              : Version 4
    File size                   : 562 MiB
    Duration                    : 22 min 35 s
    Overall bit rate mode       : Variable
    Overall bit rate            : 3 479 kb/s
    Movie name                  : Pokemon Liga indigo T01E01 - CinemaniaHDD.Net
    Encoded date                : UTC 2021-04-10 01:22:03
    Writing application         : mkvmerge v49.0.0 ('Sick Of Losing Soulmates') 64-bit
    Writing library             : libebml v1.4.0 + libmatroska v1.6.1

    Video
    ID                          : 1
    Format                      : AVC
    Format/Info                 : Advanced Video Codec
    Format profile              : Main@L4
    Format settings             : CABAC / 3 Ref Frames
    Format settings, CABAC      : Yes
    Format settings, Reference  : 3 frames
    Codec ID                    : V_MPEG4/ISO/AVC
    Duration                    : 22 min 35 s
    Bit rate mode               : Variable
    Bit rate                    : 3 320 kb/s
    Maximum bit rate            : 4 980 kb/s
    Width                       : 1 440 pixels
    Height                      : 1 080 pixels
    Display aspect ratio        : 4:3
    Frame rate mode             : Constant
    Frame rate                  : 23.976 (24000/1001) FPS
    Color space                 : YUV
    Chroma subsampling          : 4:2:0
    Bit depth                   : 8 bits
    Scan type                   : Progressive
    Bits/(Pixel*Frame)          : 0.089
    Stream size                 : 531 MiB (94%)
    Title                       : CinemaniaHDD
    Writing library             : x264 core 148 r2722 1b0121b
    Encoding settings           : cabac=1 / ref=3 / deblock=1:0:0 / analyse=0x1:0x111 / me=umh / subme=10 / psy=1 / psy_rd=1.00:0.00 / mixed_ref=1 / me_range=24 / chroma_me=1 / trellis=2 / 8x8dct=0 / cqm=0 / deadzone=21,11 / fast_pskip=1 / chroma_qp_offset=-2 / threads=6 / lookahead_threads=1 / sliced_threads=0 / nr=0 / decimate=1 / interlaced=0 / bluray_compat=0 / stitchable=1 / constrained_intra=0 / bframes=2 / b_pyramid=0 / b_adapt=2 / b_bias=0 / direct=3 / weightb=1 / open_gop=0 / weightp=2 / keyint=48 / keyint_min=25 / scenecut=0 / intra_refresh=0 / rc_lookahead=48 / rc=2pass / mbtree=1 / bitrate=3320 / ratetol=1.0 / qcomp=0.50 / qpmin=6 / qpmax=51 / qpstep=4 / cplxblur=20.0 / qblur=0.5 / vbv_maxrate=4980 / vbv_bufsize=6640 / nal_hrd=vbr / filler=0 / ip_ratio=1.40 / aq=1:1.00
    Default                     : Yes
    Forced                      : No

    Audio #1
    ID                          : 2
    Format                      : AAC LC SBR
    Format/Info                 : Advanced Audio Codec Low Complexity with Spectral Band Replication
    Commercial name             : HE-AAC
    Format settings             : Explicit
    Codec ID                    : A_AAC-2
    Duration                    : 22 min 35 s
    Bit rate                    : 96.0 kb/s
    Channel(s)                  : 2 channels
    Channel layout              : L R
    Sampling rate               : 48.0 kHz
    Frame rate                  : 23.438 FPS (2048 SPF)
    Compression mode            : Lossy
    Stream size                 : 15.5 MiB (3%)
    Title                       : Español latino [CinemaniaHDD]
    Language                    : Spanish
    Default                     : Yes
    Forced                      : No

    Audio #2
    ID                          : 3
    Format                      : AAC LC SBR
    Format/Info                 : Advanced Audio Codec Low Complexity with Spectral Band Replication
    Commercial name             : HE-AAC
    Format settings             : Explicit
    Codec ID                    : A_AAC-2
    Duration                    : 22 min 35 s
    Bit rate                    : 96.0 kb/s
    Channel(s)                  : 2 channels
    Channel layout              : L R
    Sampling rate               : 48.0 kHz
    Frame rate                  : 23.438 FPS (2048 SPF)
    Compression mode            : Lossy
    Stream size                 : 15.5 MiB (3%)
    Title                       : Inglés [CinemaniaHDD]
    Language                    : English
    Default                     : No
    Forced                      : No

    Text
    ID                          : 4
    Format                      : UTF-8
    Codec ID                    : S_TEXT/UTF8
    Codec ID/Info               : UTF-8 Plain Text
    Duration                    : 21 min 15 s
    Bit rate                    : 80 b/s
    Count of elements           : 350
    Stream size                 : 12.6 KiB (0%)
    Title                       : Español latino (SDH) [CinemaniaHDD]
    Language                    : Spanish
    Default                     : No
    Forced                      : No

     

  • Peso: 562 MiB Aprox ---- 27 GiB in 52 Chapters.

Sinopsis

La serie narra las aventuras del joven entrenador Pokemon de diez años Ash Ketchum, que decide comenzar su aventura para llegar a convertirse un día en un gran Maestro de Pokemon. Para ello deberá recorrer distintas regiones, capturar cuantos más pokemon pueda, y conseguir las medallas de gimnasio necesarias y así participar en la Liga Pokemon, ganarla y así estar un paso más cerca de convertirse en Maestro Pokemon. Para ello cuenta con la ayuda de Pikachu, su primer pokemon, que obtuvo de manos del Profesor Oak. En su recorrido conocerá y hará nuevos amigos, como Brock o Misty, que le acompañarán y ayudarán para conseguir alcanzar su sueño.

Ficha técnica

Video trailer de la película

Enlaces de descarga

Rip de Bluray

Descargar Pokémon indigo league (2000) Temporada 1 WEB-DL 1080p Latino




Aportes de DPeliculasHDmega la pass es:dpeliculashdmega.org Aportes de CinemaniaHD la pass es:cinemaniahdd.com

Películas relacionadas

Pokémon indigo league (2000) Temporada 1 WEB-DL 1080p Latino pelicula full hd, Pokémon indigo league (2000) Temporada 1 WEB-DL 1080p Latino mega latino, Pokémon indigo league (2000) Temporada 1 WEB-DL 1080p Latino 4k latino, Pokémon indigo league (2000) Temporada 1 WEB-DL 1080p Latino pelicula completa, Pokémon indigo league (2000) Temporada 1 WEB-DL 1080p Latino descargar gratis, descargar Pokémon indigo league (2000) Temporada 1 WEB-DL 1080p Latino pelicula latino, Pokémon indigo league (2000) Temporada 1 WEB-DL 1080p Latino 1 link mega, Pokémon indigo league (2000) Temporada 1 WEB-DL 1080p Latino 1 link google drive, Pokémon indigo league (2000) Temporada 1 WEB-DL 1080p Latino hd 1080p latino.
Comentarios 2
  • Dann - 10 abril, 2021

    Gracias por subir ésta temporada en esta calidad, subirán las demás?

    • CinemaniaHDD - 16 abril, 2021

      no hay mas de donde fue extraida