Pokémon: El poder de todos (2018) AMZN Web-DL 1080p Latino

1.757 vistas
1 estrella2 estrellas3 estrellas4 estrellas5 estrellas (4 votos, promedio: 4,00 de 5)
Cargando…

Información de Pokémon: El poder de todos (2018) AMZN Web-DL 1080p Latino

Datos de la película

  • Calidad: WEBDL
  • Audio: Se especifica abajo de la Sinopsis
  • Subtitulos: No
  • Resolución: 1920x1080p
  • Formato: MKV
  • Codec: H.264
  • Encoder: NTG
  • Mediainfo: Clic para Mostrar Datos Ver
  • Pokemon - El Poder de Todos (2018) AMZN Web-DL 1080p Latino.mkv
    Format                      : Matroska
    Format version              : Version 4
    File size                   : 6.70 GiB
    Duration                    : 1 h 37 min
    Overall bit rate            : 9 835 kb/s
    Movie name                  : CinemaniaHDD.Net
    Encoded date                : UTC 2018-12-12 02:30:42
    Writing application         : mkvmerge v28.2.0 ('The Awakening') 64-bit
    Writing library             : libebml v1.3.6 + libmatroska v1.4.9

    Video
    ID                          : 1
    Format                      : AVC
    Format/Info                 : Advanced Video Codec
    Format profile              : [email protected]
    Format settings             : CABAC / 4 Ref Frames
    Format settings, CABAC      : Yes
    Format settings, ReFrames   : 4 frames
    Codec ID                    : V_MPEG4/ISO/AVC
    Duration                    : 1 h 37 min
    Bit rate mode               : Constant
    Bit rate                    : 9 321 kb/s
    Nominal bit rate            : 10 000 kb/s
    Width                       : 1 920 pixels
    Height                      : 1 080 pixels
    Display aspect ratio        : 16:9
    Frame rate mode             : Constant
    Frame rate                  : 23.976 (24000/1001) FPS
    Color space                 : YUV
    Chroma subsampling          : 4:2:0
    Bit depth                   : 8 bits
    Scan type                   : Progressive
    Bits/(Pixel*Frame)          : 0.187
    Stream size                 : 6.35 GiB (95%)
    Title                       : HD1080p [AMZN]
    Language                    : English
    Default                     : Yes
    Forced                      : No
    Color range                 : Limited
    Color primaries             : BT.709
    Transfer characteristics    : BT.709
    Matrix coefficients         : BT.709

    Audio #1
    ID                          : 2
    Format                      : AC-3
    Format/Info                 : Audio Coding 3
    Commercial name             : Dolby Digital
    Codec ID                    : A_AC3
    Duration                    : 1 h 37 min
    Bit rate mode               : Constant
    Bit rate                    : 256 kb/s
    Channel(s)                  : 2 channels
    Channel layout              : L R
    Sampling rate               : 48.0 kHz
    Frame rate                  : 31.250 FPS (1536 SPF)
    Bit depth                   : 16 bits
    Compression mode            : Lossy
    Stream size                 : 178 MiB (3%)
    Title                       : AC3_2.0_Esp
    Language                    : Spanish
    Service kind                : Complete Main
    Default                     : Yes
    Forced                      : Yes

    Audio #2
    ID                          : 3
    Format                      : E-AC-3
    Format/Info                 : Enhanced AC-3
    Commercial name             : Dolby Digital Plus
    Codec ID                    : A_EAC3
    Duration                    : 1 h 37 min
    Bit rate mode               : Constant
    Bit rate                    : 256 kb/s
    Channel(s)                  : 6 channels
    Channel layout              : L R C LFE Ls Rs
    Sampling rate               : 48.0 kHz
    Frame rate                  : 31.250 FPS (1536 SPF)
    Compression mode            : Lossy
    Stream size                 : 178 MiB (3%)
    Title                       : e-AC3_5.1_AMZN_Eng
    Language                    : English
    Service kind                : Complete Main
    Default                     : No
    Forced                      : No

    Text
    ID                          : 4
    Format                      : UTF-8
    Codec ID                    : S_TEXT/UTF8
    Codec ID/Info               : UTF-8 Plain Text
    Duration                    : 1 h 37 min
    Bit rate                    : 98 b/s
    Count of elements           : 2210
    Stream size                 : 70.4 KiB (0%)
    Title                       : Sub_Eng
    Language                    : English
    Default                     : No
    Forced                      : No

  • Peso: 6.70 GiB

Sinopsis

Descargar Pokémon: El poder de todos (2018) AMZN Web-DL 1080p Latino, Mega, Google Drive. La película Pokémon El poder de todos cuenta la historia de Ash y Pikachu en su viaje a una pequeña ciudad al lado del mar repleta de diversos personajes, incluidos una joven atleta, un mentiroso compulsivo, un investigador reservado, una anciana arisca y una pequeña con un gran secreto. Cada año, sus habitantes se reúnen para celebrar al Pokémon legendario Lugia, que hace que sople el viento que salvó la ciudad de la destrucción hace muchos años. El festival es un momento de celebración, con una carrera de captura de Pokémon y una llama ceremonial que arde vivamente para invocar a Lugia. Sin embargo, cuando una serie de incidentes amenazan no solo el festival, sino también a todas las personas y los Pokémon que viven en la ciudad, Ash y Pikachu no podrán ellos solos salvarlos a todos. ¿Podrán todos ellos dejar a un lado sus diferencias y trabajar juntos para rescatar su hogar? ¿O acabará todo siendo destruido?

Audio Español Latino AC3 2.0 DVD – Ingles E-AC3 5.1 Ingles Amazon

Ficha técnica

Video trailer de la película

Enlaces de descarga

Rip de Bluray

Descargar Pokémon: El poder de todos (2018) AMZN Web-DL 1080p Latino




Aportes de DPeliculasHDmega la pass es:dpeliculashdmega.org Aportes de CinemaniaHD la pass es:cinemaniahdd.com
Guardado en : Animación , Aventura , Familia , Fantasía

Películas relacionadas

Comentarios 0