×

¿Problemas para descargar con Mozilla, EDGE? Deshabilita la opción "Abrir vinculos en una pestaña nueva" tal como lo muestra ésta imagen.

Point Break (1991) REMUX 1080p Latino – CMHDD

157 vistas

Información de Point Break (1991) REMUX 1080p Latino – CMHDD

Datos de la película

  • Calidad: Full 1080p
  • Audio: Español Latino AC3 2.0 BLURAY - Ingles DTS 5.1 BLURAY
  • Subtitulos: Español Latino PGS
  • Resolución: 1920x1080p
  • Formato: MKV
  • Codec: H.264
  • Encoder: Dracarys
  • Mediainfo: Clic para Mostrar Datos Ver
  • Format                      : Matroska
    Format version              : Version 4
    File size                   : 29.3 GiB
    Duration                    : 2 h 2 min
    Overall bit rate mode       : Variable
    Overall bit rate            : 34.3 Mb/s
    Movie name                  : Point Break (1991) REMUX 1080p Latino - CMHDD
    Encoded date                : UTC 2021-09-17 16:52:32
    Writing application         : mkvmerge v17.0.0 ('Be Ur Friend') 64-bit
    Writing library             : libebml v1.3.5 + libmatroska v1.4.8

    Video
    ID                          : 1
    Format                      : AVC
    Format/Info                 : Advanced Video Codec
    Format profile              : High@L4.1
    Format settings             : CABAC / 3 Ref Frames
    Format settings, CABAC      : Yes
    Format settings, Reference  : 3 frames
    Format settings, GOP        : M=3, N=24
    Codec ID                    : V_MPEG4/ISO/AVC
    Duration                    : 2 h 2 min
    Bit rate                    : 29.3 Mb/s
    Width                       : 1 920 pixels
    Height                      : 1 080 pixels
    Display aspect ratio        : 16:9
    Frame rate mode             : Constant
    Frame rate                  : 23.976 (24000/1001) FPS
    Color space                 : YUV
    Chroma subsampling          : 4:2:0
    Bit depth                   : 8 bits
    Scan type                   : Progressive
    Bits/(Pixel*Frame)          : 0.590
    Stream size                 : 25.0 GiB (85%)
    Default                     : Yes
    Forced                      : No

    Audio #1
    ID                          : 2
    Format                      : DTS XLL
    Format/Info                 : Digital Theater Systems
    Commercial name             : DTS-HD Master Audio
    Codec ID                    : A_DTS
    Duration                    : 2 h 2 min
    Bit rate mode               : Variable
    Bit rate                    : 4 303 kb/s
    Channel(s)                  : 6 channels
    Channel layout              : C L R Ls Rs LFE
    Sampling rate               : 48.0 kHz
    Frame rate                  : 93.750 FPS (512 SPF)
    Bit depth                   : 24 bits
    Compression mode            : Lossless
    Delay relative to video     : 5 ms
    Stream size                 : 3.67 GiB (13%)
    Language                    : English
    Default                     : No
    Forced                      : No

    Audio #2
    ID                          : 3
    Format                      : AC-3
    Format/Info                 : Audio Coding 3
    Commercial name             : Dolby Digital
    Codec ID                    : A_AC3
    Duration                    : 2 h 2 min
    Bit rate mode               : Constant
    Bit rate                    : 448 kb/s
    Channel(s)                  : 6 channels
    Channel layout              : L R C LFE Ls Rs
    Sampling rate               : 48.0 kHz
    Frame rate                  : 31.250 FPS (1536 SPF)
    Compression mode            : Lossy
    Delay relative to video     : 5 ms
    Stream size                 : 391 MiB (1%)
    Language                    : English
    Service kind                : Complete Main
    Default                     : No
    Forced                      : No

    Audio #3
    ID                          : 4
    Format                      : AC-3
    Format/Info                 : Audio Coding 3
    Commercial name             : Dolby Digital
    Codec ID                    : A_AC3
    Duration                    : 2 h 2 min
    Bit rate mode               : Constant
    Bit rate                    : 224 kb/s
    Channel(s)                  : 2 channels
    Channel layout              : L R
    Sampling rate               : 48.0 kHz
    Frame rate                  : 31.250 FPS (1536 SPF)
    Compression mode            : Lossy
    Delay relative to video     : 5 ms
    Stream size                 : 196 MiB (1%)
    Language                    : Spanish
    Service kind                : Complete Main
    Default                     : Yes
    Forced                      : No

    Text
    ID                          : 5
    Format                      : PGS
    Muxing mode                 : zlib
    Codec ID                    : S_HDMV/PGS
    Codec ID/Info               : Picture based subtitle format used on BDs/HD-DVDs
    Duration                    : 1 h 55 min
    Bit rate                    : 36.0 kb/s
    Count of elements           : 2315
    Stream size                 : 29.7 MiB (0%)
    Language                    : Spanish
    Default                     : No
    Forced                      : No

    Menu
    00:00:00.000                : en:Chapter 1
    00:03:08.188                : en:Chapter 2
    00:06:18.336                : en:Chapter 3
    00:09:38.160                : en:Chapter 4
    00:13:25.221                : en:Chapter 5
    00:16:44.128                : en:Chapter 6
    00:20:59.007                : en:Chapter 7
    00:24:04.734                : en:Chapter 8
    00:27:35.945                : en:Chapter 9
    00:31:05.822                : en:Chapter 10
    00:39:00.588                : en:Chapter 11
    00:43:33.694                : en:Chapter 12
    00:49:32.886                : en:Chapter 13
    00:58:36.221                : en:Chapter 14
    01:02:16.566                : en:Chapter 15
    01:10:29.558                : en:Chapter 16
    01:16:42.222                : en:Chapter 17
    01:23:43.476                : en:Chapter 18
    01:27:15.938                : en:Chapter 19
    01:34:51.310                : en:Chapter 20
    01:41:14.276                : en:Chapter 21
    01:50:13.690                : en:Chapter 22
    01:55:20.955                : en:Chapter 23
    01:58:36.442                : en:Chapter 24

  • Peso: 29.3 GiB

Sinopsis

Un joven agente del FBI investiga unos robos cometidos por una peculiar banda de asaltantes. Para seguir sus pesquisas se infiltra en un grupo de surfistas cuyo líder es una especie de místico.

Ficha técnica

Video trailer de la película

Enlaces de descarga

Rip de Bluray

Descargar Point Break (1991) REMUX 1080p Latino – CMHDD


Aportes de DPeliculasHDmega la pass es:dpeliculashdmega.org Aportes de CinemaniaHD la pass es:cinemaniahdd.com
Guardado en : Acción , Crimen , Suspenso

Películas relacionadas

descargar Point Break (1991) REMUX 1080p Latino – CMHDD Full 1080p 1080p gratis, Point Break (1991) REMUX 1080p Latino – CMHDD Full 1080p mega 1 link, Point Break (1991) REMUX 1080p Latino – CMHDD Full 1080p pelicula completa, descargar Point Break (1991) REMUX 1080p Latino – CMHDD Full 1080p gratis en mega.

Point Break (1991) REMUX 1080p Latino – CMHDD pelicula full hd, Point Break (1991) REMUX 1080p Latino – CMHDD mega latino, Point Break (1991) REMUX 1080p Latino – CMHDD 4k latino, Point Break (1991) REMUX 1080p Latino – CMHDD pelicula completa, Point Break (1991) REMUX 1080p Latino – CMHDD descargar gratis, descargar Point Break (1991) REMUX 1080p Latino – CMHDD pelicula latino, Point Break (1991) REMUX 1080p Latino – CMHDD 1 link mega, Point Break (1991) REMUX 1080p Latino – CMHDD 1 link google drive, Point Break (1991) REMUX 1080p Latino – CMHDD hd 1080p latino.