×

¿Problemas para descargar con Mozilla, EDGE? Deshabilita la opción "Abrir vinculos en una pestaña nueva" tal como lo muestra ésta imagen.

Pobres criaturas (2023) WEB-DL 4K UHD HDR Latino

81 vistas

Información de Pobres criaturas (2023) WEB-DL 4K UHD HDR Latino

Datos de la película

  • Calidad: WEBDL
  • Audio: Español Latino AC3 5.1 WEB-DL - Ingles AC3 5.1 WEB-DL
  • Subtitulos: Español Latino SRT- FORZADOS SRT
  • Resolución: 3582x2160p
  • Formato: MKV
  • Codec: HEVC
  • Encoder: Melkor
  • Mediainfo: Clic para Mostrar Datos Ver
  • Poor Things (2023) WEB 4K UHD HDR Latino.mkv
    Format                      : Matroska
    Format version              : Version 4
    File size                   : 25.5 GiB
    Duration                    : 2 h 21 min
    Overall bit rate            : 25.8 Mb/s
    Movie name                  : Poor Things (2023) CinemaniaHDD.Net
    Encoded date                : UTC 2024-02-26 19:27:13
    Writing application         : mkvmerge v56.1.0 ('My Friend') 64-bit
    Writing library             : libebml v1.4.2 + libmatroska v1.6.4
    Attachments                 : CINEMANIAHD.png
    Site                        : CinemaniaHDD.Net
    Uploader                    : Melkor

    Video
    ID                          : 1
    Format                      : HEVC
    Format/Info                 : High Efficiency Video Coding
    Format profile              : Main 10@L5@High
    HDR format                  : Dolby Vision, Version 1.0, dvhe.08.06, BL+RPU, HDR10 compatible / SMPTE ST 2094 App 4, Version 1, HDR10+ Profile A compatible
    Codec ID                    : V_MPEGH/ISO/HEVC
    Duration                    : 2 h 21 min
    Bit rate                    : 24.6 Mb/s
    Width                       : 3 582 pixels
    Height                      : 2 160 pixels
    Display aspect ratio        : 5:3
    Frame rate mode             : Constant
    Frame rate                  : 24.000 FPS
    Color space                 : YUV
    Chroma subsampling          : 4:2:0 (Type 2)
    Bit depth                   : 10 bits
    Bits/(Pixel*Frame)          : 0.132
    Stream size                 : 24.3 GiB (96%)
    Title                       : Web 2160p HDR [CinemaniaHDD]
    Language                    : English
    Default                     : Yes
    Forced                      : No
    Color range                 : Limited
    Color primaries             : BT.2020
    Transfer characteristics    : PQ
    Matrix coefficients         : BT.2020 non-constant
    Mastering display color pri : BT.2020
    Mastering display luminance : min: 0.0050 cd/m2, max: 1000 cd/m2
    Maximum Content Light Level : 1433 cd/m2
    Maximum Frame-Average Light : 92 cd/m2

    Audio #1
    ID                          : 2
    Format                      : AC-3
    Format/Info                 : Audio Coding 3
    Commercial name             : Dolby Digital
    Codec ID                    : A_AC3
    Duration                    : 2 h 21 min
    Bit rate mode               : Constant
    Bit rate                    : 384 kb/s
    Channel(s)                  : 6 channels
    Channel layout              : L R C LFE Ls Rs
    Sampling rate               : 48.0 kHz
    Frame rate                  : 31.250 FPS (1536 SPF)
    Compression mode            : Lossy
    Stream size                 : 389 MiB (1%)
    Title                       : Español Latino [CinemaniaHDD]
    Language                    : Spanish
    Service kind                : Complete Main
    Default                     : Yes
    Forced                      : Yes

    Audio #2
    ID                          : 3
    Format                      : E-AC-3 JOC
    Format/Info                 : Enhanced AC-3 with Joint Object Coding
    Commercial name             : Dolby Digital Plus with Dolby Atmos
    Codec ID                    : A_EAC3
    Duration                    : 2 h 21 min
    Bit rate mode               : Constant
    Bit rate                    : 768 kb/s
    Channel(s)                  : 6 channels
    Channel layout              : L R C LFE Ls Rs
    Sampling rate               : 48.0 kHz
    Frame rate                  : 31.250 FPS (1536 SPF)
    Compression mode            : Lossy
    Stream size                 : 778 MiB (3%)
    Title                       : Ingles [CinemaniaHDD]
    Language                    : English
    Service kind                : Complete Main
    Default                     : No
    Forced                      : No
    Complexity index            : 16
    Number of dynamic objects   : 15
    Bed channel count           : 1 channel
    Bed channel configuration   : LFE

    Text #1
    ID                          : 4
    Format                      : UTF-8
    Codec ID                    : S_TEXT/UTF8
    Codec ID/Info               : UTF-8 Plain Text
    Duration                    : 1 h 51 min
    Bit rate                    : 0 b/s
    Count of elements           : 7
    Stream size                 : 97.0 Bytes (0%)
    Title                       : Forzados-SRT [CinemaniaHDD]
    Language                    : Spanish
    Default                     : Yes
    Forced                      : Yes

    Text #2
    ID                          : 5
    Format                      : UTF-8
    Codec ID                    : S_TEXT/UTF8
    Codec ID/Info               : UTF-8 Plain Text
    Duration                    : 2 h 21 min
    Bit rate                    : 44 b/s
    Count of elements           : 1643
    Stream size                 : 46.0 KiB (0%)
    Title                       : Español-SRT [CinemaniaHDD]
    Language                    : Spanish
    Default                     : No
    Forced                      : No

    Text #3
    ID                          : 6
    Format                      : UTF-8
    Codec ID                    : S_TEXT/UTF8
    Codec ID/Info               : UTF-8 Plain Text
    Duration                    : 2 h 10 min
    Bit rate                    : 47 b/s
    Count of elements           : 1627
    Stream size                 : 45.0 KiB (0%)
    Title                       : Ingles-SRT [CinemaniaHDD]
    Language                    : English
    Default                     : No
    Forced                      : No

    Menu
    00:00:00.000                : Chapter 01
    00:04:51.666                : Chapter 02
    00:08:12.125                : Chapter 03
    00:11:12.500                : Chapter 04
    00:15:42.375                : Chapter 05
    00:20:07.875                : Chapter 06
    00:25:42.250                : Chapter 07
    00:31:38.000                : Chapter 08
    00:36:54.000                : Chapter 09
    00:41:05.958                : Chapter 10
    00:48:28.166                : Chapter 11
    00:51:27.708                : Chapter 12
    00:59:05.458                : Chapter 13
    01:04:49.500                : Chapter 14
    01:09:36.333                : Chapter 15
    01:15:48.666                : Chapter 16
    01:22:32.208                : Chapter 17
    01:24:11.250                : Chapter 18
    01:30:57.833                : Chapter 19
    01:37:16.625                : Chapter 20
    01:43:33.125                : Chapter 21
    01:45:18.833                : Chapter 22
    01:48:23.041                : Chapter 23
    01:51:10.750                : Chapter 24
    01:58:14.208                : Chapter 25
    02:11:36.666                : Chapter 26
    02:15:57.000                : Chapter 27

  • Peso: 25.5 GiB

Sinopsis

Descargar Pobres criaturas (2023) WEB-DL 4K UHD HDR Latino. Bella Baxter es una joven revivida por el brillante y poco ortodoxo científico Dr. Godwin Baxter. Bajo la protección de Baxter, Bella está ansiosa por aprender. Hambrienta de la mundanidad que le falta, Bella se escapa con Duncan Wedderburn, un sofisticado y perverso abogado, en una aventura vertiginosa a través de los continentes. Libre de los prejuicios de su época, Bella se vuelve firme en su propósito de defender la igualdad y la liberación.

Ficha técnica

Video trailer de la película

Enlaces de descarga

Rip de Bluray

Descargar Pobres criaturas (2023) WEB-DL 4K UHD HDR Latino




Aportes de DPeliculasHDmega la pass es:dpeliculashdmega.org Aportes de CinemaniaHD la pass es:cinemaniahdd.com Aportes recientes:cinemaniahdd.net

Películas relacionadas

  • Good Burger 2 (2023) HD 1080p Latino

    Good Burger 2 (2023) HD 1080p Latino

    2023
    Good Burger 2 (2023) HD 1080p Latino

    1h 31m 2023

    Descargar Good Burger 2 (2023) HD 1080p Latino. Después de que su último invento falla, Ed le da la...

    Director: Ross Novie

    Género: Comedia

    Actores: Zoe Saldana

  • Good Burger 2 (2023) PLACEBO Full HD 1080p Latino

    Good Burger 2 (2023) PLACEBO Full HD 1080p Latino

    2023
    Good Burger 2 (2023) PLACEBO Full HD 1080p Latino

    1h 31m 2023

    Descargar Good Burger 2 (2023) PLACEBO Full HD 1080p Latino. Después de que su último invento falla,...

    Director: Ross Novie

    Género: Comedia

    Actores: Zoe Saldana

  • Good Burger 2 (2023) REMUX 1080p Latino

    Good Burger 2 (2023) REMUX 1080p Latino

    2023
    Good Burger 2 (2023) REMUX 1080p Latino

    1h 31m 2023

    Descargar Good Burger 2 (2023) REMUX 1080p Latino. Después de que su último invento falla, Ed le da...

    Director: Ross Novie

    Género: Comedia

    Actores: Zoe Saldana

  • Shōgun (2024)  Temporada 1 WEB-DL 4K UHD HDR Latino

    Shōgun (2024) Temporada 1 WEB-DL 4K UHD HDR Latino

    2024
    Shōgun (2024) Temporada 1 WEB-DL 4K UHD HDR Latino

    0h 0m 2024

    Descargar Shōgun (2024) Temporada 1 WEB-DL 4K UHD HDR Latino. En el Japón del siglo XVII, el náufrago...

    Director: Rachel Kondo

    Género: 4K HDR

    Actores: Tommy Bastow

descargar Pobres criaturas (2023) WEB-DL 4K UHD HDR Latino WEBDL 1080p gratis, Pobres criaturas (2023) WEB-DL 4K UHD HDR Latino WEBDL mega 1 link, Pobres criaturas (2023) WEB-DL 4K UHD HDR Latino WEBDL pelicula completa, descargar Pobres criaturas (2023) WEB-DL 4K UHD HDR Latino WEBDL gratis en mega.

Pobres criaturas (2023) WEB-DL 4K UHD HDR Latino pelicula full hd, Pobres criaturas (2023) WEB-DL 4K UHD HDR Latino mega latino, Pobres criaturas (2023) WEB-DL 4K UHD HDR Latino 4k latino, Pobres criaturas (2023) WEB-DL 4K UHD HDR Latino pelicula completa, Pobres criaturas (2023) WEB-DL 4K UHD HDR Latino descargar gratis, descargar Pobres criaturas (2023) WEB-DL 4K UHD HDR Latino pelicula latino, Pobres criaturas (2023) WEB-DL 4K UHD HDR Latino 1 link mega, Pobres criaturas (2023) WEB-DL 4K UHD HDR Latino 1 link google drive, Pobres criaturas (2023) WEB-DL 4K UHD HDR Latino hd 1080p latino.
Comentarios 0