×

¿Problemas para descargar con Mozilla, EDGE? Deshabilita la opción "Abrir vinculos en una pestaña nueva" tal como lo muestra ésta imagen.

Pleasantville (1998) REMUX 1080p Latino – CMHDD

133 vistas

Información de Pleasantville (1998) REMUX 1080p Latino – CMHDD

Datos de la película

  • Calidad: Full 1080p
  • Audio: Español Latino AC3 2.0 BLURAY - Ingles DTS 5.1 BLURAY
  • Subtitulos: Español Latino PGS
  • Resolución: 1920x1080p
  • Formato: MKV
  • Codec: H.264
  • Encoder: Dracarys
  • Mediainfo: Clic para Mostrar Datos Ver
  • Format                      : Matroska
    Format version              : Version 4
    File size                   : 21.7 GiB
    Duration                    : 2 h 4 min
    Overall bit rate mode       : Variable
    Overall bit rate            : 25.0 Mb/s
    Movie name                  : Pleasantville (1998) REMUX 1080p Latino - CMHDD
    Encoded date                : UTC 2021-09-01 18:51:32
    Writing application         : mkvmerge v17.0.0 ('Be Ur Friend') 64-bit
    Writing library             : libebml v1.3.5 + libmatroska v1.4.8

    Video
    ID                          : 1
    Format                      : AVC
    Format/Info                 : Advanced Video Codec
    Format profile              : High@L4.1
    Format settings             : CABAC / 2 Ref Frames
    Format settings, CABAC      : Yes
    Format settings, Reference  : 2 frames
    Format settings, GOP        : M=1, N=10
    Codec ID                    : V_MPEG4/ISO/AVC
    Duration                    : 2 h 4 min
    Bit rate mode               : Variable
    Bit rate                    : 20.5 Mb/s
    Width                       : 1 920 pixels
    Height                      : 1 080 pixels
    Display aspect ratio        : 16:9
    Frame rate mode             : Constant
    Frame rate                  : 23.976 (24000/1001) FPS
    Color space                 : YUV
    Chroma subsampling          : 4:2:0
    Bit depth                   : 8 bits
    Scan type                   : Progressive
    Bits/(Pixel*Frame)          : 0.413
    Stream size                 : 17.9 GiB (82%)
    Default                     : Yes
    Forced                      : No

    Audio #1
    ID                          : 2
    Format                      : DTS XLL
    Format/Info                 : Digital Theater Systems
    Commercial name             : DTS-HD Master Audio
    Codec ID                    : A_DTS
    Duration                    : 2 h 4 min
    Bit rate mode               : Variable
    Bit rate                    : 4 053 kb/s
    Channel(s)                  : 6 channels
    Channel layout              : C L R Ls Rs LFE
    Sampling rate               : 48.0 kHz
    Frame rate                  : 93.750 FPS (512 SPF)
    Bit depth                   : 24 bits
    Compression mode            : Lossless
    Stream size                 : 3.53 GiB (16%)
    Language                    : English
    Default                     : No
    Forced                      : No

    Audio #2
    ID                          : 3
    Format                      : AC-3
    Format/Info                 : Audio Coding 3
    Commercial name             : Dolby Digital
    Format settings             : Dolby Surround
    Codec ID                    : A_AC3
    Duration                    : 2 h 4 min
    Bit rate mode               : Constant
    Bit rate                    : 192 kb/s
    Channel(s)                  : 2 channels
    Channel layout              : L R
    Sampling rate               : 48.0 kHz
    Frame rate                  : 31.250 FPS (1536 SPF)
    Compression mode            : Lossy
    Stream size                 : 171 MiB (1%)
    Language                    : Spanish
    Service kind                : Complete Main
    Default                     : No
    Forced                      : No

    Audio #3
    ID                          : 4
    Format                      : AC-3
    Format/Info                 : Audio Coding 3
    Commercial name             : Dolby Digital
    Format settings             : Dolby Surround
    Codec ID                    : A_AC3
    Duration                    : 2 h 4 min
    Bit rate mode               : Constant
    Bit rate                    : 192 kb/s
    Channel(s)                  : 2 channels
    Channel layout              : L R
    Sampling rate               : 48.0 kHz
    Frame rate                  : 31.250 FPS (1536 SPF)
    Compression mode            : Lossy
    Stream size                 : 171 MiB (1%)
    Language                    : Spanish
    Service kind                : Complete Main
    Default                     : Yes
    Forced                      : No

    Text #1
    ID                          : 5
    Format                      : PGS
    Muxing mode                 : zlib
    Codec ID                    : S_HDMV/PGS
    Codec ID/Info               : Picture based subtitle format used on BDs/HD-DVDs
    Duration                    : 2 h 3 min
    Bit rate                    : 26.8 kb/s
    Count of elements           : 2848
    Stream size                 : 23.7 MiB (0%)
    Language                    : Spanish
    Default                     : No
    Forced                      : No

    Text #2
    ID                          : 6
    Format                      : PGS
    Muxing mode                 : zlib
    Codec ID                    : S_HDMV/PGS
    Codec ID/Info               : Picture based subtitle format used on BDs/HD-DVDs
    Duration                    : 2 h 3 min
    Bit rate                    : 26.1 kb/s
    Count of elements           : 2836
    Stream size                 : 23.2 MiB (0%)
    Language                    : Spanish
    Default                     : No
    Forced                      : No

    Menu
    00:00:00.000                : en:Chapter 1
    00:00:36.369                : en:Chapter 2
    00:02:01.121                : en:Chapter 3
    00:05:59.359                : en:Chapter 4
    00:07:52.013                : en:Chapter 5
    00:09:55.219                : en:Chapter 6
    00:12:40.718                : en:Chapter 7
    00:16:58.976                : en:Chapter 8
    00:19:46.226                : en:Chapter 9
    00:22:55.874                : en:Chapter 10
    00:26:35.343                : en:Chapter 11
    00:28:08.728                : en:Chapter 12
    00:32:08.217                : en:Chapter 13
    00:34:11.966                : en:Chapter 14
    00:36:27.226                : en:Chapter 15
    00:38:05.700                : en:Chapter 16
    00:42:52.736                : en:Chapter 17
    00:46:24.782                : en:Chapter 18
    00:48:21.899                : en:Chapter 19
    00:50:47.294                : en:Chapter 20
    00:53:59.569                : en:Chapter 21
    00:55:46.760                : en:Chapter 22
    00:57:57.432                : en:Chapter 23
    01:00:29.334                : en:Chapter 24
    01:02:58.733                : en:Chapter 25
    01:05:48.903                : en:Chapter 26
    01:10:35.481                : en:Chapter 27
    01:13:16.642                : en:Chapter 28
    01:16:50.147                : en:Chapter 29
    01:20:52.347                : en:Chapter 30
    01:26:15.670                : en:Chapter 31
    01:31:54.133                : en:Chapter 32
    01:36:00.171                : en:Chapter 33
    01:42:11.375                : en:Chapter 34
    01:49:10.418                : en:Chapter 35
    01:53:14.454                : en:Chapter 36
    01:56:41.995                : en:Chapter 37
     

  • Peso: 21.7 GiB

Sinopsis

Norteamérica, años cincuenta.David (Tobey Maguire) y su hermana Jennifer (Reese Witherspoon) son teletransportados mágicamente al mundo ficticio de una serie clásica de la televisión en blanco y negro. Allí convivirán con los personajes de la serie, donde todo es demasiado perfecto, hasta que puedan volver a la realidad, apreciando nuevos valores gracias a esa comunidad buena y tranquila a la vez que también influyendo mucho en ese mundo, llevando el color a sus vidas.

Ficha técnica

Video trailer de la película

Enlaces de descarga

Rip de Bluray

Descargar Pleasantville (1998) REMUX 1080p Latino – CMHDD


Aportes de DPeliculasHDmega la pass es:dpeliculashdmega.org Aportes de CinemaniaHD la pass es:cinemaniahdd.com
Guardado en : Comedia , Drama , Fantasía

Películas relacionadas

  • Tren Bala (2022) WEB-DL 4K UHD HDR Latino

    Tren Bala (2022) WEB-DL 4K UHD HDR Latino

    2022
    Tren Bala (2022) WEB-DL 4K UHD HDR Latino

    2h 7m 2022

    Descargar Tren Bala (2022) WEB-DL 4K UHD HDR Latino. El desafortunado asesino "Catarina" está decidido...

    Director: Paul Barry

    Género: 4K HDR

    Actores: Zooey Miyoshi

  • Tren Bala (2022) AMZN WEB-DL 1080p Latino

    Tren Bala (2022) AMZN WEB-DL 1080p Latino

    2022
    Tren Bala (2022) AMZN WEB-DL 1080p Latino

    2h 7m 2022

    Descargar Tren Bala (2022) AMZN WEB-DL 1080p Latino. Cinco asesinos a sueldo se encuentran a bordo de...

    Director: Paul Barry

    Género: Acción

    Actores: Zooey Miyoshi

  • Infiniti (2022) Primera Temporada WEB-DL 1080p Latino

    Infiniti (2022) Primera Temporada WEB-DL 1080p Latino

    2022
    Infiniti (2022) Primera Temporada WEB-DL 1080p Latino

    0h 52m 2022

    La ISS, la Estación Espacial Internacional se ha quedado en silencio. La tripulación está en peligro....

    Director: Stéphane Pannetier

    Género: Drama

    Actores: Vlad Ivanov

  • Rick y Morty (2022) Temporada 6 WEB-DL 1080p Latino

    Rick y Morty (2022) Temporada 6 WEB-DL 1080p Latino

    2013
    Rick y Morty (2022) Temporada 6 WEB-DL 1080p Latino

    0h 22m 2013

    Comedia animada que narra las aventuras de un científico loco Rick Sánchez, que regresa después de...

    Director: Justin Roiland

    Género: Action & Adventure

    Actores: Spencer Grammer

descargar Pleasantville (1998) REMUX 1080p Latino – CMHDD Full 1080p 1080p gratis, Pleasantville (1998) REMUX 1080p Latino – CMHDD Full 1080p mega 1 link, Pleasantville (1998) REMUX 1080p Latino – CMHDD Full 1080p pelicula completa, descargar Pleasantville (1998) REMUX 1080p Latino – CMHDD Full 1080p gratis en mega.

Pleasantville (1998) REMUX 1080p Latino – CMHDD pelicula full hd, Pleasantville (1998) REMUX 1080p Latino – CMHDD mega latino, Pleasantville (1998) REMUX 1080p Latino – CMHDD 4k latino, Pleasantville (1998) REMUX 1080p Latino – CMHDD pelicula completa, Pleasantville (1998) REMUX 1080p Latino – CMHDD descargar gratis, descargar Pleasantville (1998) REMUX 1080p Latino – CMHDD pelicula latino, Pleasantville (1998) REMUX 1080p Latino – CMHDD 1 link mega, Pleasantville (1998) REMUX 1080p Latino – CMHDD 1 link google drive, Pleasantville (1998) REMUX 1080p Latino – CMHDD hd 1080p latino.
Comentarios 0