×

¿Problemas para descargar con Mozilla, EDGE? Deshabilita la opción "Abrir vinculos en una pestaña nueva" tal como lo muestra ésta imagen.

Playhouse (2020) HD 1080p Latino

172 vistas

Información de Playhouse (2020) HD 1080p Latino

Datos de la película

  • Calidad: 1080p
  • Audio: Español Latino AC3 5.1 WEB-DL - Ingles AC3 5.1 BLURAY
  • Subtitulos: Español Latino SRT- FORZADOS SRT
  • Resolución: 1920x800p
  • Formato: MKV
  • Codec: H.264
  • Encoder: Melkor
  • Mediainfo: Clic para Mostrar Datos Ver
  • Playhouse (2020) HD 1080p Latino.mkv
    Format                      : Matroska
    Format version              : Version 4
    File size                   : 2.75 GiB
    Duration                    : 1 h 26 min
    Overall bit rate            : 4 529 kb/s
    Movie name                  : Playhouse (2020) CinemaniaHDD.Net
    Encoded date                : UTC 2021-10-21 04:43:48
    Writing application         : mkvmerge v56.1.0 ('My Friend') 64-bit
    Writing library             : libebml v1.4.2 + libmatroska v1.6.4
    Attachments                 : CINEMANIAHD.png

    Video
    ID                          : 1
    Format                      : AVC
    Format/Info                 : Advanced Video Codec
    Format profile              : High@L4.1
    Format settings             : CABAC / 5 Ref Frames
    Format settings, CABAC      : Yes
    Format settings, Reference  : 5 frames
    Codec ID                    : V_MPEG4/ISO/AVC
    Duration                    : 1 h 26 min
    Bit rate                    : 3 631 kb/s
    Width                       : 1 920 pixels
    Height                      : 800 pixels
    Display aspect ratio        : 2.40:1
    Frame rate mode             : Constant
    Frame rate                  : 24.000 FPS
    Color space                 : YUV
    Chroma subsampling          : 4:2:0
    Bit depth                   : 8 bits
    Scan type                   : Progressive
    Bits/(Pixel*Frame)          : 0.098
    Stream size                 : 2.20 GiB (80%)
    Title                       : HD1080p [CinemaniaHDD]
    Writing library             : x264 core 164 r3065 ae03d92
    Encoding settings           : cabac=1 / ref=5 / deblock=1:-3:-3 / analyse=0x3:0x113 / me=umh / subme=8 / psy=1 / psy_rd=1.00:0.15 / mixed_ref=1 / me_range=16 / chroma_me=1 / trellis=1 / 8x8dct=1 / cqm=0 / deadzone=21,11 / fast_pskip=0 / chroma_qp_offset=-3 / threads=24 / lookahead_threads=4 / sliced_threads=0 / nr=0 / decimate=1 / interlaced=0 / bluray_compat=0 / constrained_intra=0 / bframes=3 / b_pyramid=2 / b_adapt=2 / b_bias=0 / direct=3 / weightb=1 / open_gop=0 / weightp=2 / keyint=250 / keyint_min=24 / scenecut=40 / intra_refresh=0 / rc_lookahead=50 / rc=crf / mbtree=1 / crf=20.0 / qcomp=0.60 / qpmin=0 / qpmax=69 / qpstep=4 / ip_ratio=1.40 / aq=1:1.00
    Default                     : Yes
    Forced                      : Yes
    Color range                 : Limited
    Color primaries             : BT.709
    Transfer characteristics    : BT.709
    Matrix coefficients         : BT.709

    Audio #1
    ID                          : 2
    Format                      : AC-3
    Format/Info                 : Audio Coding 3
    Commercial name             : Dolby Digital
    Codec ID                    : A_AC3
    Duration                    : 1 h 26 min
    Bit rate mode               : Constant
    Bit rate                    : 448 kb/s
    Channel(s)                  : 6 channels
    Channel layout              : L R C LFE Ls Rs
    Sampling rate               : 48.0 kHz
    Frame rate                  : 31.250 FPS (1536 SPF)
    Compression mode            : Lossy
    Stream size                 : 278 MiB (10%)
    Title                       : Español Latino [CinemaniaHDD]
    Language                    : Spanish
    Service kind                : Complete Main
    Default                     : Yes
    Forced                      : Yes

    Audio #2
    ID                          : 3
    Format                      : AC-3
    Format/Info                 : Audio Coding 3
    Commercial name             : Dolby Digital
    Codec ID                    : A_AC3
    Duration                    : 1 h 26 min
    Bit rate mode               : Constant
    Bit rate                    : 448 kb/s
    Channel(s)                  : 6 channels
    Channel layout              : L R C LFE Ls Rs
    Sampling rate               : 48.0 kHz
    Frame rate                  : 31.250 FPS (1536 SPF)
    Compression mode            : Lossy
    Stream size                 : 278 MiB (10%)
    Title                       : Ingles [CinemaniaHDD]
    Language                    : English
    Service kind                : Complete Main
    Default                     : No
    Forced                      : No

    Text #1
    ID                          : 4
    Format                      : UTF-8
    Codec ID                    : S_TEXT/UTF8
    Codec ID/Info               : UTF-8 Plain Text
    Duration                    : 18 min 50 s
    Bit rate                    : 2 b/s
    Count of elements           : 7
    Stream size                 : 336 Bytes (0%)
    Title                       : Forzados-SRT [CinemaniaHDD]
    Language                    : Spanish
    Default                     : Yes
    Forced                      : Yes

    Text #2
    ID                          : 5
    Format                      : UTF-8
    Codec ID                    : S_TEXT/UTF8
    Codec ID/Info               : UTF-8 Plain Text
    Duration                    : 1 h 19 min
    Bit rate                    : 42 b/s
    Count of elements           : 835
    Stream size                 : 25.0 KiB (0%)
    Title                       : Español-SRT [CinemaniaHDD]
    Language                    : Spanish
    Default                     : No
    Forced                      : No

    Text #3
    ID                          : 6
    Format                      : UTF-8
    Codec ID                    : S_TEXT/UTF8
    Codec ID/Info               : UTF-8 Plain Text
    Duration                    : 1 h 19 min
    Bit rate                    : 39 b/s
    Count of elements           : 840
    Stream size                 : 23.1 KiB (0%)
    Title                       : Ingles [CinemaniaHDD]
    Language                    : English
    Default                     : No
    Forced                      : No

    Menu
    00:00:00.000                : :Chapter 01
    00:10:13.292                : :Chapter 02
    00:21:46.667                : :Chapter 03
    00:30:34.542                : :Chapter 04
    00:41:01.250                : :Chapter 05
    00:52:17.125                : :Chapter 06
    01:02:13.542                : :Chapter 07
    01:07:40.542                : :Chapter 08

  • Peso: 2.75 GiB

Sinopsis

Descargar Playhouse (2020) HD 1080p Latino. El temerario Jack Travis (William Holstead) es un irreverente escritor de terror conocido por asustar al público. Pero mientras se obsesiona con la creación de un nuevo espectáculo teatral en un castillo escocés embrujado, perturbaciones demoníacas desde lo profundo de las murallas comienzan a acechar a su problemática hija. Cuando las alarmantes fuerzas sobrenaturales comienzan a acercarse a él también, Jack se ve forzado a contar con las aterradoras consecuencias de crear una obra tan oscura y macabra. ¿Pero se dará cuenta del peligro de desenterrar una maldición histórica y dejará de escribir antes de condenarse a sí mismo, a su cordura personal y a sus seres queridos para siempre?

Ficha técnica

Video trailer de la película

Enlaces de descarga

Rip de Bluray

Descargar Playhouse (2020) HD 1080p Latino




Aportes de DPeliculasHDmega la pass es:dpeliculashdmega.org Aportes de CinemaniaHD la pass es:cinemaniahdd.com
Guardado en : HD 1080p , Suspenso , Terror

Películas relacionadas

descargar Playhouse (2020) HD 1080p Latino 1080p 1080p gratis, Playhouse (2020) HD 1080p Latino 1080p mega 1 link, Playhouse (2020) HD 1080p Latino 1080p pelicula completa, descargar Playhouse (2020) HD 1080p Latino 1080p gratis en mega.

Playhouse (2020) HD 1080p Latino pelicula full hd, Playhouse (2020) HD 1080p Latino mega latino, Playhouse (2020) HD 1080p Latino 4k latino, Playhouse (2020) HD 1080p Latino pelicula completa, Playhouse (2020) HD 1080p Latino descargar gratis, descargar Playhouse (2020) HD 1080p Latino pelicula latino, Playhouse (2020) HD 1080p Latino 1 link mega, Playhouse (2020) HD 1080p Latino 1 link google drive, Playhouse (2020) HD 1080p Latino hd 1080p latino.
Comentarios 0