×

¿Problemas para descargar con Mozilla, EDGE? Deshabilita la opción "Abrir vinculos en una pestaña nueva" tal como lo muestra ésta imagen.

Play or Die (2019) WEB-DL 1080p latino

1.737 vistas

Información de Play or Die (2019) WEB-DL 1080p latino

Datos de la película

  • Calidad: WEBDL
  • Audio: Español Latino AC3 2.0 iTunes - Ingles AC3 5.1 iTunes
  • Subtitulos: Español Latino SRT- FORZADOS SRT
  • Resolución: 1920x872
  • Formato: MKV
  • Codec: H.264
  • Encoder: cinemaniahdd
  • Mediainfo: Clic para Mostrar Datos Ver
  • Play or Die (2019) WEB-DL 1080p latinot.mkv
    Format                      : Matroska
    Format version              : Version 4
    File size                   : 4.22 GiB
    Duration                    : 1 h 29 min
    Overall bit rate            : 6 773 kb/s
    Movie name                  : Play or Die (2019) - CinemaniaHDD.Net
    Encoded date                : UTC 2019-11-23 16:15:11
    Writing application         : mkvmerge v38.0.0 ('The Silent Type') 64-bit
    Writing library             : libebml v1.3.9 + libmatroska v1.5.2

    Video
    ID                          : 1
    Format                      : AVC
    Format/Info                 : Advanced Video Codec
    Format profile              : High@L4
    Format settings             : CABAC / 4 Ref Frames
    Format settings, CABAC      : Yes
    Format settings, ReFrames   : 4 frames
    Codec ID                    : V_MPEG4/ISO/AVC
    Duration                    : 1 h 29 min
    Bit rate mode               : Constant
    Bit rate                    : 6 131 kb/s
    Nominal bit rate            : 10 000 kb/s
    Width                       : 1 920 pixels
    Height                      : 872 pixels
    Display aspect ratio        : 2.2:1
    Original display aspect rat : 2.2:1
    Frame rate mode             : Constant
    Frame rate                  : 24.000 FPS
    Color space                 : YUV
    Chroma subsampling          : 4:2:0
    Bit depth                   : 8 bits
    Scan type                   : Progressive
    Bits/(Pixel*Frame)          : 0.153
    Stream size                 : 3.82 GiB (91%)
    Title                       : CinemaniaHDD
    Default                     : Yes
    Forced                      : No
    Color range                 : Limited
    Color primaries             : BT.709
    Transfer characteristics    : BT.709
    Matrix coefficients         : BT.709

    Audio #1
    ID                          : 2
    Format                      : AC-3
    Format/Info                 : Audio Coding 3
    Commercial name             : Dolby Digital
    Codec ID                    : A_AC3
    Duration                    : 1 h 29 min
    Bit rate mode               : Constant
    Bit rate                    : 256 kb/s
    Channel(s)                  : 2 channels
    Channel layout              : L R
    Sampling rate               : 48.0 kHz
    Frame rate                  : 31.250 FPS (1536 SPF)
    Bit depth                   : 16 bits
    Compression mode            : Lossy
    Stream size                 : 163 MiB (4%)
    Title                       : Español latino [CinemaniaHDD]
    Language                    : Spanish
    Service kind                : Complete Main
    Default                     : Yes
    Forced                      : No

    Audio #2
    ID                          : 3
    Format                      : AC-3
    Format/Info                 : Audio Coding 3
    Commercial name             : Dolby Digital
    Codec ID                    : A_AC3
    Duration                    : 1 h 29 min
    Bit rate mode               : Constant
    Bit rate                    : 384 kb/s
    Channel(s)                  : 6 channels
    Channel layout              : L R C LFE Ls Rs
    Sampling rate               : 48.0 kHz
    Frame rate                  : 31.250 FPS (1536 SPF)
    Bit depth                   : 16 bits
    Compression mode            : Lossy
    Stream size                 : 245 MiB (6%)
    Title                       : Inglés [CinemaniaHDD]
    Language                    : English
    Service kind                : Complete Main
    Default                     : No
    Forced                      : No

    Text #1
    ID                          : 4
    Format                      : UTF-8
    Codec ID                    : S_TEXT/UTF8
    Codec ID/Info               : UTF-8 Plain Text
    Duration                    : 1 h 16 min
    Bit rate                    : 0 b/s
    Count of elements           : 9
    Stream size                 : 200 Bytes (0%)
    Title                       : Forzados [CinemaniaHDD]
    Language                    : Spanish
    Default                     : Yes
    Forced                      : Yes

    Text #2
    ID                          : 5
    Format                      : UTF-8
    Codec ID                    : S_TEXT/UTF8
    Codec ID/Info               : UTF-8 Plain Text
    Duration                    : 1 h 24 min
    Bit rate                    : 36 b/s
    Count of elements           : 819
    Stream size                 : 22.3 KiB (0%)
    Title                       : Español latino [CinemaniaHDD]
    Language                    : Spanish
    Default                     : No
    Forced                      : No

    Text #3
    ID                          : 6
    Format                      : UTF-8
    Codec ID                    : S_TEXT/UTF8
    Codec ID/Info               : UTF-8 Plain Text
    Duration                    : 1 h 23 min
    Bit rate                    : 40 b/s
    Count of elements           : 964
    Stream size                 : 24.9 KiB (0%)
    Title                       : Inglés [CinemaniaHDD]
    Language                    : English
    Default                     : No
    Forced                      : No

    Menu
    00:00:00.000                : en:Chapter 1
    00:11:05.665                : en:Chapter 2
    00:16:47.006                : en:Chapter 3
    00:29:23.762                : en:Chapter 4
    00:40:26.424                : en:Chapter 5
    00:51:19.076                : en:Chapter 6
    01:00:44.641                : en:Chapter 7
    01:10:11.207                : en:Chapter 8
    01:18:23.699                : en:Chapter 9
    01:27:02.217                : en:Chapter 10

     

  • Peso: 4.22 GiB

Sinopsis

Bienvenido a Paranoia, el mejor juego de escape. Regla 1: Nada es real. Regla 2: Uno de ustedes morirá. Lucas y Chloe, dos jugadores apasionados, deciden participar en Paranoia, un juego de escape muy exclusivo. Después de resolver un primer enigma, llegan a la ubicación de la final en un hospital psiquiátrico abandonado, perdido en un bosque aterrador. Allí, otros cuatro participantes los están esperando. Pronto se dan cuenta de que solo uno de ellos saldrá vivo de allí. Basado en la novela más vendida «Puzzle» de Franck Thilliez, con más de 330,000 copias vendidas: «Configuraciones infernales, personajes manipulados como títeres, todos los ingredientes clave para un gran suspenso. Todas las piezas del rompecabezas encajan perfectamente».

Ficha técnica

Video trailer de la película

Enlaces de descarga

Rip de Bluray

Descargar Play or Die (2019) WEB-DL 1080p latino




Aportes de DPeliculasHDmega la pass es:dpeliculashdmega.org Aportes de CinemaniaHD la pass es:cinemaniahdd.com
Guardado en : Misterio , Terror

Películas relacionadas

  • Emily la criminal (2022) HD 1080p Latino

    Emily la criminal (2022) HD 1080p Latino

    2022
    Emily la criminal (2022) HD 1080p Latino

    1h 37m 2022

    Descargar Emily la criminal (2022) HD 1080p Latino. Emily, que tiene una deuda estudiantil y está excluida...

    Director: John Patton Ford

    Género: Crimen

    Actores: Theo Rossi

  • Emily la criminal (2022) REMUX 1080p Latino

    Emily la criminal (2022) REMUX 1080p Latino

    2022
    Emily la criminal (2022) REMUX 1080p Latino

    1h 37m 2022

    Descargar Emily la criminal (2022) REMUX 1080p Latino. Emily, que tiene una deuda estudiantil y está...

    Director: John Patton Ford

    Género: Crimen

    Actores: Theo Rossi

  • Resurrección (2022) AMZN WEB-DL 1080p Latino

    Resurrección (2022) AMZN WEB-DL 1080p Latino

    2022
    Resurrección (2022) AMZN WEB-DL 1080p Latino

    1h 43m 2022

    Descargar Resurrección (2022) AMZN Web-DL 1080p Latino. La vida cuidadosamente construida de una mujer...

    Director: Michael Kefeyalew

    Género: Drama

    Actores: Zarra Kaahn

descargar Play or Die (2019) WEB-DL 1080p latino WEBDL 1080p gratis, Play or Die (2019) WEB-DL 1080p latino WEBDL mega 1 link, Play or Die (2019) WEB-DL 1080p latino WEBDL pelicula completa, descargar Play or Die (2019) WEB-DL 1080p latino WEBDL gratis en mega.

Play or Die (2019) WEB-DL 1080p latino pelicula full hd, Play or Die (2019) WEB-DL 1080p latino mega latino, Play or Die (2019) WEB-DL 1080p latino 4k latino, Play or Die (2019) WEB-DL 1080p latino pelicula completa, Play or Die (2019) WEB-DL 1080p latino descargar gratis, descargar Play or Die (2019) WEB-DL 1080p latino pelicula latino, Play or Die (2019) WEB-DL 1080p latino 1 link mega, Play or Die (2019) WEB-DL 1080p latino 1 link google drive, Play or Die (2019) WEB-DL 1080p latino hd 1080p latino.
Comentarios 0