×

¿Problemas para descargar con Mozilla, EDGE? Deshabilita la opción "Abrir vinculos en una pestaña nueva" tal como lo muestra ésta imagen.

Platoon (1986) REMUX 1080p Latino – CMHDD

243 vistas

Información de Platoon (1986) REMUX 1080p Latino – CMHDD

Datos de la película

  • Calidad: Full 1080p
  • Audio: Español Latino AC3 5.1 BLURAY - Ingles DTS 5.1 BLURAY
  • Subtitulos: Español Latino PGS
  • Resolución: 1920x1080p
  • Formato: MKV
  • Codec: H.264
  • Encoder: Dracarys
  • Mediainfo: Clic para Mostrar Datos Ver
  • Format                      : Matroska
    Format version              : Version 4
    File size                   : 24.7 GiB
    Duration                    : 1 h 59 min
    Overall bit rate mode       : Variable
    Overall bit rate            : 29.5 Mb/s
    Movie name                  : Platoon (1986) REMUX 1080p Latino - CMHDD
    Encoded date                : UTC 2021-07-15 05:33:19
    Writing application         : mkvmerge v56.1.0 ('My Friend') 64-bit
    Writing library             : libebml v1.4.2 + libmatroska v1.6.4
    Cover                       : Yes
    Attachments                 : cover.jpg

    Video
    ID                          : 1
    ID in the original source m : 4113 (0x1011)
    Format                      : AVC
    Format/Info                 : Advanced Video Codec
    Format profile              : High@L4.1
    Format settings             : CABAC / 4 Ref Frames
    Format settings, CABAC      : Yes
    Format settings, Reference  : 4 frames
    Codec ID                    : V_MPEG4/ISO/AVC
    Duration                    : 1 h 59 min
    Bit rate mode               : Variable
    Bit rate                    : 26.6 Mb/s
    Maximum bit rate            : 29.0 Mb/s
    Width                       : 1 920 pixels
    Height                      : 1 080 pixels
    Display aspect ratio        : 16:9
    Frame rate mode             : Constant
    Frame rate                  : 23.976 (24000/1001) FPS
    Color space                 : YUV
    Chroma subsampling          : 4:2:0
    Bit depth                   : 8 bits
    Scan type                   : Progressive
    Bits/(Pixel*Frame)          : 0.534
    Stream size                 : 22.2 GiB (90%)
    Default                     : Yes
    Forced                      : No
    Color range                 : Limited
    Color primaries             : BT.709
    Transfer characteristics    : BT.709
    Matrix coefficients         : BT.709
    Original source medium      : Blu-ray

    Audio #1
    ID                          : 2
    ID in the original source m : 4352 (0x1100)
    Format                      : DTS XLL
    Format/Info                 : Digital Theater Systems
    Commercial name             : DTS-HD Master Audio
    Codec ID                    : A_DTS
    Duration                    : 1 h 59 min
    Bit rate mode               : Variable
    Bit rate                    : 2 024 kb/s
    Channel(s)                  : 6 channels
    Channel layout              : C L R Ls Rs LFE
    Sampling rate               : 48.0 kHz
    Frame rate                  : 93.750 FPS (512 SPF)
    Bit depth                   : 16 bits
    Compression mode            : Lossless
    Stream size                 : 1.69 GiB (7%)
    Language                    : English
    Default                     : No
    Forced                      : No
    Original source medium      : Blu-ray

    Audio #2
    ID                          : 3
    ID in the original source m : 4353 (0x1101)
    Format                      : AC-3
    Format/Info                 : Audio Coding 3
    Commercial name             : Dolby Digital
    Codec ID                    : A_AC3
    Duration                    : 1 h 59 min
    Bit rate mode               : Constant
    Bit rate                    : 448 kb/s
    Channel(s)                  : 4 channels
    Channel layout              : L R C Cb
    Sampling rate               : 48.0 kHz
    Frame rate                  : 31.250 FPS (1536 SPF)
    Compression mode            : Lossy
    Stream size                 : 384 MiB (2%)
    Language                    : English
    Service kind                : Complete Main
    Default                     : No
    Forced                      : No
    Original source medium      : Blu-ray

    Audio #3
    ID                          : 4
    ID in the original source m : 4354 (0x1102)
    Format                      : AC-3
    Format/Info                 : Audio Coding 3
    Commercial name             : Dolby Digital
    Codec ID                    : A_AC3
    Duration                    : 1 h 59 min
    Bit rate mode               : Constant
    Bit rate                    : 448 kb/s
    Channel(s)                  : 6 channels
    Channel layout              : L R C LFE Ls Rs
    Sampling rate               : 48.0 kHz
    Frame rate                  : 31.250 FPS (1536 SPF)
    Compression mode            : Lossy
    Stream size                 : 384 MiB (2%)
    Language                    : Spanish
    Service kind                : Complete Main
    Default                     : Yes
    Forced                      : No
    Original source medium      : Blu-ray

    Text
    ID                          : 5
    ID in the original source m : 4611 (0x1203)
    Format                      : PGS
    Muxing mode                 : zlib
    Codec ID                    : S_HDMV/PGS
    Codec ID/Info               : Picture based subtitle format used on BDs/HD-DVDs
    Duration                    : 1 h 59 min
    Bit rate                    : 31.2 kb/s
    Count of elements           : 2534
    Stream size                 : 26.6 MiB (0%)
    Language                    : Spanish
    Default                     : No
    Forced                      : No
    Original source medium      : Blu-ray

    Menu
    00:00:00.000                : Chapter 01
    00:02:57.135                : Chapter 02
    00:05:26.534                : Chapter 03
    00:08:14.535                : Chapter 04
    00:11:28.479                : Chapter 05
    00:13:13.667                : Chapter 06
    00:18:43.122                : Chapter 07
    00:22:44.863                : Chapter 08
    00:26:26.001                : Chapter 09
    00:29:59.422                : Chapter 10
    00:32:18.895                : Chapter 11
    00:36:30.730                : Chapter 12
    00:43:07.459                : Chapter 13
    00:45:09.415                : Chapter 14
    00:50:32.904                : Chapter 15
    00:55:49.554                : Chapter 16
    00:58:56.157                : Chapter 17
    01:01:50.581                : Chapter 18
    01:03:04.864                : Chapter 19
    01:04:45.381                : Chapter 20
    01:11:02.549                : Chapter 21
    01:15:26.772                : Chapter 22
    01:16:48.437                : Chapter 23
    01:21:07.279                : Chapter 24
    01:26:42.322                : Chapter 25
    01:29:21.022                : Chapter 26
    01:32:25.498                : Chapter 27
    01:37:21.794                : Chapter 28
    01:43:40.130                : Chapter 29
    01:46:49.444                : Chapter 30
    01:50:16.651                : Chapter 31
    01:55:35.011                : Chapter 32

  • Peso: 24.7 GiB

Sinopsis

Chris Taylor es un ingenuo joven estadounidense que, a su llegada a Vietnam, descubre que no sólo debe combatir contra los soldados vietnamitas sino también contra el miedo que le atormenta, el cansancio y la rabia que le invade. Mientras sus dos oficiales al mando libran su propia batalla personal, el conflicto, el caos y el odio hacen mella en Taylor, confundiendo su realidad e insensibilizándole ante el valor más preciado del ser humano… la vida.

Ficha técnica

Video trailer de la película

Enlaces de descarga

Rip de Bluray

Descargar Platoon (1986) REMUX 1080p Latino – CMHDD


Aportes de DPeliculasHDmega la pass es:dpeliculashdmega.org Aportes de CinemaniaHD la pass es:cinemaniahdd.com
Guardado en : Acción , Bélica , Drama

Películas relacionadas

  • Stromboli (2022) NF WEB-DL 1080p Latino

    Stromboli (2022) NF WEB-DL 1080p Latino

    2022
    Stromboli (2022) NF WEB-DL 1080p Latino

    1h 26m 2022

    Descargar Stromboli (2022) NF WEB-DL 1080p Latino. Sara, una mujer que se ha divorciado recientemente,...

    Director: Michiel van Erp

    Género: Drama

    Actores: Tim McInnerny

  • Infiesto (2023) NF WEB-DL 1080p Castellano

    Infiesto (2023) NF WEB-DL 1080p Castellano

    2023
    Infiesto (2023) NF WEB-DL 1080p Castellano

    1h 36m 2023

    Descargar Infiesto (2023) NF WEB-DL 1080p Castellano. Mientras el coronavirus trastoca sus vidas, dos...

    Director: Patxi Amezcua

    Género: Crimen

    Actores: Luis Zahera

  • Espiritu Libre (2023) NF WEB-DL 1080p Latino

    Espiritu Libre (2023) NF WEB-DL 1080p Latino

    2023
    Espiritu Libre (2023) NF WEB-DL 1080p Latino

    1h 49m 2023

    Descargar Espiritu Libre (2023) NF WEB-DL 1080p Latino. La película se basa en la increíble historia...

    Director: Sarah Spillane

    Género: Aventura

    Actores: Vivien Turner

descargar Platoon (1986) REMUX 1080p Latino – CMHDD Full 1080p 1080p gratis, Platoon (1986) REMUX 1080p Latino – CMHDD Full 1080p mega 1 link, Platoon (1986) REMUX 1080p Latino – CMHDD Full 1080p pelicula completa, descargar Platoon (1986) REMUX 1080p Latino – CMHDD Full 1080p gratis en mega.

Platoon (1986) REMUX 1080p Latino – CMHDD pelicula full hd, Platoon (1986) REMUX 1080p Latino – CMHDD mega latino, Platoon (1986) REMUX 1080p Latino – CMHDD 4k latino, Platoon (1986) REMUX 1080p Latino – CMHDD pelicula completa, Platoon (1986) REMUX 1080p Latino – CMHDD descargar gratis, descargar Platoon (1986) REMUX 1080p Latino – CMHDD pelicula latino, Platoon (1986) REMUX 1080p Latino – CMHDD 1 link mega, Platoon (1986) REMUX 1080p Latino – CMHDD 1 link google drive, Platoon (1986) REMUX 1080p Latino – CMHDD hd 1080p latino.