×

¿Problemas para descargar con Mozilla, EDGE? Deshabilita la opción "Abrir vinculos en una pestaña nueva" tal como lo muestra ésta imagen.

Planeta 51 (2009) Full HD 1080p Latino

442 vistas

Información de Planeta 51 (2009) Full HD 1080p Latino

Datos de la película

  • Calidad: Full 1080p
  • Audio: Español Latino AC3 5.1 BLURAY - Ingles DTS 5.1 BLURAY
  • Subtitulos: Español Latino SRT- FORZADOS SRT
  • Resolución: 1920x1080p
  • Formato: MKV
  • Codec: H.264
  • Encoder: CinefiloCool
  • Mediainfo: Clic para Mostrar Datos Ver
  • Planeta 51 (2009) Full HD 1080p Latino-CMHDD.mkv
    Format                      : Matroska
    Format version              : Version 4
    File size                   : 3.47 GiB
    Duration                    : 1 h 31 min
    Overall bit rate            : 5 450 kb/s
    Movie name                  : Planet 51 (2009) CinemaniaHDD.Net
    Encoded date                : UTC 2022-01-11 04:50:19
    Writing application         : mkvmerge v56.1.0 ('My Friend') 64-bit
    Writing library             : libebml v1.4.2 + libmatroska v1.6.4
    Attachments                 : CINEMANIAHD.png

    Video
    ID                          : 1
    Format                      : AVC
    Format/Info                 : Advanced Video Codec
    Format profile              : High@L4.1
    Format settings             : CABAC / 4 Ref Frames
    Format settings, CABAC      : Yes
    Format settings, Reference  : 4 frames
    Codec ID                    : V_MPEG4/ISO/AVC
    Duration                    : 1 h 31 min
    Bit rate                    : 3 290 kb/s
    Width                       : 1 920 pixels
    Height                      : 1 080 pixels
    Display aspect ratio        : 16:9
    Frame rate mode             : Constant
    Frame rate                  : 23.976 (24000/1001) FPS
    Color space                 : YUV
    Chroma subsampling          : 4:2:0
    Bit depth                   : 8 bits
    Scan type                   : Progressive
    Bits/(Pixel*Frame)          : 0.066
    Stream size                 : 2.09 GiB (60%)
    Title                       : Full HD1080p [CinemaniaHDD]
    Writing library             : x264 core 163 r3059 b684ebe0
    Encoding settings           : cabac=1 / ref=4 / deblock=1:0:0 / analyse=0x3:0x133 / me=tesa / subme=11 / psy=1 / psy_rd=1.00:0.00 / mixed_ref=1 / me_range=24 / chroma_me=1 / trellis=2 / 8x8dct=1 / cqm=0 / deadzone=21,11 / fast_pskip=0 / chroma_qp_offset=-2 / threads=24 / lookahead_threads=6 / sliced_threads=0 / nr=0 / decimate=1 / interlaced=0 / bluray_compat=0 / constrained_intra=0 / bframes=16 / b_pyramid=2 / b_adapt=2 / b_bias=0 / direct=3 / weightb=1 / open_gop=0 / weightp=2 / keyint=240 / keyint_min=24 / scenecut=40 / intra_refresh=0 / rc_lookahead=60 / rc=crf / mbtree=1 / crf=19.0 / qcomp=0.60 / qpmin=0 / qpmax=69 / qpstep=4 / vbv_maxrate=62500 / vbv_bufsize=78125 / crf_max=0.0 / nal_hrd=none / filler=0 / ip_ratio=1.40 / aq=1:1.00
    Default                     : Yes
    Forced                      : Yes
    Color range                 : Limited
    Color primaries             : BT.709
    Transfer characteristics    : BT.709
    Matrix coefficients         : BT.709

    Audio #1
    ID                          : 2
    Format                      : AC-3
    Format/Info                 : Audio Coding 3
    Commercial name             : Dolby Digital
    Codec ID                    : A_AC3
    Duration                    : 1 h 31 min
    Bit rate mode               : Constant
    Bit rate                    : 640 kb/s
    Channel(s)                  : 6 channels
    Channel layout              : L R C LFE Ls Rs
    Sampling rate               : 48.0 kHz
    Frame rate                  : 31.250 FPS (1536 SPF)
    Compression mode            : Lossy
    Stream size                 : 417 MiB (12%)
    Title                       : Español Latino [CinemaniaHDD]
    Language                    : Spanish
    Service kind                : Complete Main
    Default                     : Yes
    Forced                      : Yes

    Audio #2
    ID                          : 3
    Format                      : DTS
    Format/Info                 : Digital Theater Systems
    Codec ID                    : A_DTS
    Duration                    : 1 h 31 min
    Bit rate mode               : Constant
    Bit rate                    : 1 509 kb/s
    Channel(s)                  : 6 channels
    Channel layout              : C L R Ls Rs LFE
    Sampling rate               : 48.0 kHz
    Frame rate                  : 93.750 FPS (512 SPF)
    Bit depth                   : 24 bits
    Compression mode            : Lossy
    Stream size                 : 982 MiB (28%)
    Title                       : Ingles [CinemaniaHDD]
    Language                    : English
    Default                     : No
    Forced                      : No

    Text #1
    ID                          : 4
    Format                      : UTF-8
    Codec ID                    : S_TEXT/UTF8
    Codec ID/Info               : UTF-8 Plain Text
    Duration                    : 55 min 50 s
    Bit rate                    : 1 b/s
    Count of elements           : 34
    Stream size                 : 721 Bytes (0%)
    Title                       : Forzados-SRT [CinemaniaHDD]
    Language                    : Spanish
    Default                     : Yes
    Forced                      : Yes

    Text #2
    ID                          : 5
    Format                      : UTF-8
    Codec ID                    : S_TEXT/UTF8
    Codec ID/Info               : UTF-8 Plain Text
    Duration                    : 1 h 25 min
    Bit rate                    : 50 b/s
    Count of elements           : 923
    Stream size                 : 31.5 KiB (0%)
    Title                       : Español-SRT [CinemaniaHDD]
    Language                    : Spanish
    Default                     : No
    Forced                      : No

    Text #3
    ID                          : 6
    Format                      : PGS
    Muxing mode                 : zlib
    Codec ID                    : S_HDMV/PGS
    Codec ID/Info               : Picture based subtitle format used on BDs/HD-DVDs
    Duration                    : 1 h 25 min
    Bit rate                    : 30.8 kb/s
    Count of elements           : 1768
    Stream size                 : 18.8 MiB (1%)
    Title                       : Ingles [CinemaniaHDD]
    Language                    : English
    Default                     : No
    Forced                      : No

    Menu
    00:00:00.000                : Chapter 01
    00:06:46.239                : Chapter 02
    00:11:59.510                : Chapter 03
    00:18:10.255                : Chapter 04
    00:21:23.323                : Chapter 05
    00:26:07.732                : Chapter 06
    00:31:02.777                : Chapter 07
    00:33:43.563                : Chapter 08
    00:42:59.201                : Chapter 09
    00:47:48.866                : Chapter 10
    00:53:15.275                : Chapter 11
    01:00:46.768                : Chapter 12
    01:07:15.614                : Chapter 13
    01:13:01.794                : Chapter 14
    01:17:19.092                : Chapter 15
    01:19:50.118                : Chapter 16

  • Peso: 3.47 GiB

Sinopsis

Descargar Planeta 51 (2009) Full HD 1080p Latino. Planet 51 es la historia de una familia de extraterrestres que vive tranquilamente en su planeta hasta la llegada de lo que para ellos es un alienígena: un hombre. El Capitán Charles «Chuck» Baker, astronauta americano, aterriza en Planet 51 pensando que es la primera persona en pisar el planeta. Para su sorpresa, descubre que el planeta está habitado por pequeñas criaturas verdes que viven felizmente en un mundo plagado de cercas blancas, reminiscencia de la alegre inocencia de la América de los años 50, y cuyo único temor es el de ser invadidos por alienígenas… ¡como Chuck! Ayudado por su compañero robot «Rover» y su nuevo amigo Lem, Chuck tendrá que abrirse camino a través del deslumbrante y desconcertante paisaje de Planet 51 para no convertirse en pieza permanente del Museo Espacial de Invasores Alienígenas de Planet 51

Ficha técnica

Video trailer de la película

Enlaces de descarga

Rip de Bluray

Descargar Planeta 51 (2009) Full HD 1080p Latino




Aportes de DPeliculasHDmega la pass es:dpeliculashdmega.org Aportes de CinemaniaHD la pass es:cinemaniahdd.com

Películas relacionadas

descargar Planeta 51 (2009) Full HD 1080p Latino Full 1080p 1080p gratis, Planeta 51 (2009) Full HD 1080p Latino Full 1080p mega 1 link, Planeta 51 (2009) Full HD 1080p Latino Full 1080p pelicula completa, descargar Planeta 51 (2009) Full HD 1080p Latino Full 1080p gratis en mega.

Planeta 51 (2009) Full HD 1080p Latino pelicula full hd, Planeta 51 (2009) Full HD 1080p Latino mega latino, Planeta 51 (2009) Full HD 1080p Latino 4k latino, Planeta 51 (2009) Full HD 1080p Latino pelicula completa, Planeta 51 (2009) Full HD 1080p Latino descargar gratis, descargar Planeta 51 (2009) Full HD 1080p Latino pelicula latino, Planeta 51 (2009) Full HD 1080p Latino 1 link mega, Planeta 51 (2009) Full HD 1080p Latino 1 link google drive, Planeta 51 (2009) Full HD 1080p Latino hd 1080p latino.
Comentarios 0