Plan de fuga (2017) Full 1080p Castellano

2.091 vistas
1 estrella2 estrellas3 estrellas4 estrellas5 estrellas (2 votos, promedio: 2,00 de 5)
Cargando…

Información de Plan de fuga (2017) Full 1080p Castellano

Datos de la película

  • Calidad: Full 1080p
  • Audio: Español DTS 5.1 BLURAY
  • Subtitulos: Español PGS
  • Resolución: 1929x1080p
  • Formato: MKV
  • Codec: H.264
  • Encoder: Dpelis
  • Mediainfo: Clic para Mostrar Datos Ver
  • Plan.de.fuga.2017.Full.1080p.Castellano.mkv
    Format                      : Matroska
    Format version              : Version 4 / Version 2
    File size                   : 3.06 GiB
    Duration                    : 1 h 44 min
    Overall bit rate            : 4 192 kb/s
    Movie name                  : DPeliculasHDMega.ORG
    Encoded date                : UTC 2017-08-12 22:06:54 / UTC 2017-08-12T19:08:59Z
    Writing application         : mkvmerge v10.0.0 ('To Drown In You') 64bit
    Writing library             : libebml v1.3.4 + libmatroska v1.4.5 / Lavf57.7.2

    Video
    ID                          : 1
    Format                      : AVC
    Format/Info                 : Advanced Video Codec
    Format profile              : High@L4.1
    Format settings, CABAC      : Yes
    Format settings, ReFrames   : 4 frames
    Codec ID                    : V_MPEG4/ISO/AVC
    Duration                    : 1 h 44 min
    Bit rate                    : 3 661 kb/s
    Width                       : 1 920 pixels
    Height                      : 1 080 pixels
    Display aspect ratio        : 16:9
    Frame rate mode             : Constant
    Frame rate                  : 23.976 (24000/1001) FPS
    Color space                 : YUV
    Chroma subsampling          : 4:2:0
    Bit depth                   : 8 bits
    Scan type                   : Progressive
    Bits/(Pixel*Frame)          : 0.074
    Stream size                 : 2.67 GiB (87%)
    Writing library             : x264 core 148 r2708 86b7198
    Encoding settings           : cabac=1 / ref=4 / deblock=1:0:0 / analyse=0x3:0x133 / me=esa / subme=10 / psy=1 / psy_rd=1.00:0.00 / mixed_ref=1 / me_range=24 / chroma_me=1 / trellis=2 / 8x8dct=1 / cqm=0 / deadzone=21,11 / fast_pskip=1 / chroma_qp_offset=-2 / threads=34 / lookahead_threads=5 / sliced_threads=0 / nr=0 / decimate=1 / interlaced=0 / bluray_compat=0 / constrained_intra=0 / bframes=8 / b_pyramid=2 / b_adapt=2 / b_bias=0 / direct=3 / weightb=1 / open_gop=0 / weightp=2 / keyint=240 / keyint_min=24 / scenecut=40 / intra_refresh=0 / rc_lookahead=60 / rc=crf / mbtree=1 / crf=20.0 / qcomp=0.60 / qpmin=0 / qpmax=69 / qpstep=4 / vbv_maxrate=62500 / vbv_bufsize=78125 / crf_max=0.0 / nal_hrd=none / filler=0 / ip_ratio=1.40 / aq=1:1.00
    Default                     : Yes
    Forced                      : No
    Color range                 : Limited
    Color primaries             : BT.709
    Transfer characteristics    : BT.709
    Matrix coefficients         : BT.709
    Statistics Tags Issue       : mkvmerge v10.0.0 ('To Drown In You') 64bit 2017-08-12 22:06:54 / mkvmerge v10.0.0 ('To Drown In You') 64bit 2017-08-12 22:06:54 / UTC 2017-08-12T19:08:59Z
    FromStats_BitRate           : 3726373
    FromStats_Duration          : 01:44:35.478000000
    FromStats_FrameCount        : 150461
    FromStats_StreamSize        : 2923096919

    Audio
    ID                          : 2
    Format                      : AC-3
    Format/Info                 : Audio Coding 3
    Format settings, Endianness : Big
    Codec ID                    : A_AC3
    Duration                    : 1 h 44 min
    Bit rate mode               : Constant
    Bit rate                    : 448 kb/s
    Channel(s)                  : 6 channels
    Channel positions           : Front: L C R, Side: L R, LFE
    Sampling rate               : 48.0 kHz
    Frame rate                  : 31.250 FPS (1536 spf)
    Bit depth                   : 16 bits
    Compression mode            : Lossy
    Stream size                 : 335 MiB (11%)
    Title                       : Surround
    Language                    : Spanish
    Service kind                : Complete Main
    Default                     : Yes
    Forced                      : No
    Statistics Tags Issue       : mkvmerge v10.0.0 ('To Drown In You') 64bit 2017-08-12 22:06:54 / mkvmerge v10.0.0 ('To Drown In You') 64bit 2017-08-12 22:06:54 / UTC 2017-08-12T19:08:59Z
    FromStats_BitRate           : 448000
    FromStats_Duration          : 01:44:35.520000000
    FromStats_FrameCount        : 196110
    FromStats_StreamSize        : 351429120

    Text #1
    ID                          : 3
    Format                      : PGS
    Muxing mode                 : zlib
    Codec ID                    : S_HDMV/PGS
    Codec ID/Info               : Picture based subtitle format used on BDs/HD-DVDs
    Language                    : Spanish
    Default                     : No
    Forced                      : No
    Statistics Tags Issue       : mkvmerge v10.0.0 ('To Drown In You') 64bit 2017-08-12 22:06:54 / mkvmerge v10.0.0 ('To Drown In You') 64bit 2017-08-12 22:06:54 / UTC 2017-08-12T19:08:59Z
    FromStats_BitRate           : 8233
    FromStats_Duration          : 01:40:35.779000000
    FromStats_FrameCount        : 2521
    FromStats_StreamSize        : 6212282

    Text #2
    ID                          : 4
    Format                      : PGS
    Muxing mode                 : zlib
    Codec ID                    : S_HDMV/PGS
    Codec ID/Info               : Picture based subtitle format used on BDs/HD-DVDs
    Language                    : English
    Default                     : No
    Forced                      : No
    Statistics Tags Issue       : mkvmerge v10.0.0 ('To Drown In You') 64bit 2017-08-12 22:06:54 / mkvmerge v10.0.0 ('To Drown In You') 64bit 2017-08-12 22:06:54 / UTC 2017-08-12T19:08:59Z
    FromStats_BitRate           : 8141
    FromStats_Duration          : 01:39:15.449000000
    FromStats_FrameCount        : 2476
    FromStats_StreamSize        : 6060893

    Menu
    00:00:00.000                : :Chapter 1
    00:03:22.953                : :Chapter 2
    00:09:38.119                : :Chapter 3
    00:17:39.350                : :Chapter 4
    00:26:04.354                : :Chapter 5
    00:34:52.549                : :Chapter 6
    00:46:08.516                : :Chapter 7
    00:55:12.935                : :Chapter 8
    01:03:40.442                : :Chapter 9
    01:15:17.805                : :Chapter 10
    01:34:43.136                : :Chapter 11
    01:40:51.295                : :Chapter 12

  • Peso: 3.06 GB

Sinopsis

Víctor, un atracador profesional, se introduce en una peligrosa banda de delincuentes compuesta en su totalidad por exmilitares del Este. Un grupo cerrado que, ante la muerte de uno de los suyos, se ve obligado a reclutar un nuevo miembro. El plan a realizar, robar un banco. El trabajo de nuestro protagonista, perforar la cámara acorazada.

Ficha técnica

Video trailer de la película

Enlaces de descarga

Rip de Bluray

Descargar Plan de fuga (2017) Full 1080p Castellano




Aportes de DPeliculasHDmega la pass es:dpeliculashdmega.org Aportes de CinemaniaHD la pass es:cinemaniahdd.com

Películas relacionadas

  • Calibre (2018) Web-DL 1080p Latino

    2018
    Calibre (2018) Web-DL 1080p Latino

    0.0 1h 41m 2018

    Descargar Calibre (2018) Web-DL 1080p Latino, Mega, Google Drive. Durante un fin de semana en los highland...

    Director: Matt Palmer

    Género: Suspense

    Actores: Tony Curran

  • Cam (2018) NF 1080p Latino

    2018
    Cam (2018) NF 1080p Latino

    0.0 1h 34m 2018

    Alice es una camgirl con un código inamovible, que le permite mantener una cierta distancia con los...

    Director: Rachel Penner

    Género: Suspense

    Actores: Samantha Robinson

  • El Justiciero 2 (2018) Full 1080p Latino

    2018
    El Justiciero 2 (2018) Full 1080p Latino

    5.0 2h 0m 2018

    Descargar El Justiciero 2 (2018) Full 1080p Latino, Mega, Google Drive. Robert McCall (Denzel Washington)...

    Director: Donald Sparks

    Género: Acción

    Actores: Wesley Pereira

Comentarios 3
  • Pedro Canales Zablach - 15 agosto, 2017

    Muy bien sitio. Excelentes peliculas. Sigan asi.

  • Luis Naula - 13 agosto, 2017

    Excelente pagina amigo, cuando sube mas películas en 4k hdr

    • dpelis - 13 agosto, 2017

      cuando tengamos BD 4k