×

¿Problemas para descargar con Mozilla, EDGE? Deshabilita la opción "Abrir vinculos en una pestaña nueva" tal como lo muestra ésta imagen.

Placa de Acero (2019) WEB-DL 1080p Latino

1.030 vistas

Información de Placa de Acero (2019) WEB-DL 1080p Latino

Datos de la película

  • Calidad: WEBDL
  • Audio: Español Latino AC3 5.1 iTunes
  • Subtitulos: No
  • Resolución: 1912x1030
  • Formato: MKV
  • Codec: H.264
  • Encoder: cinemaniahd
  • Mediainfo: Clic para Mostrar Datos Ver
  • Placa de Acero (2019) WEB-DL 1080p Latino.mkv
    Format                      : Matroska
    Format version              : Version 4
    File size                   : 3.98 GiB
    Duration                    : 1 h 41 min
    Overall bit rate            : 5 590 kb/s
    Encoded date                : UTC 2020-01-15 17:02:28
    Writing application         : mkvmerge v38.0.0 ('The Silent Type') 64-bit
    Writing library             : libebml v1.3.9 + libmatroska v1.5.2

    Video
    ID                          : 1
    Format                      : AVC
    Format/Info                 : Advanced Video Codec
    Format profile              : High@L4
    Format settings             : CABAC / 4 Ref Frames
    Format settings, CABAC      : Yes
    Format settings, ReFrames   : 4 frames
    Codec ID                    : V_MPEG4/ISO/AVC
    Duration                    : 1 h 41 min
    Bit rate                    : 5 204 kb/s
    Width                       : 1 912 pixels
    Height                      : 1 030 pixels
    Display aspect ratio        : 1.85:1
    Frame rate mode             : Constant
    Frame rate                  : 23.976 (23976/1000) FPS
    Color space                 : YUV
    Chroma subsampling          : 4:2:0
    Bit depth                   : 8 bits
    Scan type                   : Progressive
    Bits/(Pixel*Frame)          : 0.110
    Stream size                 : 3.71 GiB (93%)
    Language                    : English
    Default                     : Yes
    Forced                      : No
    Color range                 : Limited
    Color primaries             : BT.709
    Transfer characteristics    : BT.709
    Matrix coefficients         : BT.709

    Audio
    ID                          : 2
    Format                      : AC-3
    Format/Info                 : Audio Coding 3
    Commercial name             : Dolby Digital
    Codec ID                    : A_AC3
    Duration                    : 1 h 41 min
    Bit rate mode               : Constant
    Bit rate                    : 384 kb/s
    Channel(s)                  : 6 channels
    Channel layout              : L R C LFE Ls Rs
    Sampling rate               : 48.0 kHz
    Frame rate                  : 31.250 FPS (1536 SPF)
    Bit depth                   : 16 bits
    Compression mode            : Lossy
    Delay relative to video     : -42 ms
    Stream size                 : 280 MiB (7%)
    Language                    : Spanish
    Service kind                : Complete Main
    Default                     : Yes
    Forced                      : No

    Menu
    00:00:00.000                : en:1
    00:15:26.051                : en:2
    00:35:26.418                : en:3
    00:53:06.351                : en:4
    01:13:46.799                : en:5

  • Peso: 3.98 GiB

Sinopsis

Un policía honesto se une con uno corrupto para detener una banda criminal.

Ficha técnica

Video trailer de la película

Enlaces de descarga

Rip de Bluray

Descargar Placa de Acero (2019) WEB-DL 1080p Latino




Aportes de DPeliculasHDmega la pass es:dpeliculashdmega.org Aportes de CinemaniaHD la pass es:cinemaniahdd.com
Guardado en : Comedia

Películas relacionadas

descargar Placa de Acero (2019) WEB-DL 1080p Latino WEBDL 1080p gratis, Placa de Acero (2019) WEB-DL 1080p Latino WEBDL mega 1 link, Placa de Acero (2019) WEB-DL 1080p Latino WEBDL pelicula completa, descargar Placa de Acero (2019) WEB-DL 1080p Latino WEBDL gratis en mega.

Placa de Acero (2019) WEB-DL 1080p Latino pelicula full hd, Placa de Acero (2019) WEB-DL 1080p Latino mega latino, Placa de Acero (2019) WEB-DL 1080p Latino 4k latino, Placa de Acero (2019) WEB-DL 1080p Latino pelicula completa, Placa de Acero (2019) WEB-DL 1080p Latino descargar gratis, descargar Placa de Acero (2019) WEB-DL 1080p Latino pelicula latino, Placa de Acero (2019) WEB-DL 1080p Latino 1 link mega, Placa de Acero (2019) WEB-DL 1080p Latino 1 link google drive, Placa de Acero (2019) WEB-DL 1080p Latino hd 1080p latino.
Comentarios 0