×

¿Problemas para descargar con Mozilla, EDGE? Deshabilita la opción "Abrir vinculos en una pestaña nueva" tal como lo muestra ésta imagen.

Pivoting (2022) Primera Temporda HMAX WEB-DL 1080p Latino

281 vistas

Información de Pivoting (2022) Primera Temporda HMAX WEB-DL 1080p Latino

Datos de la película

  • Calidad: 1080p
  • Audio: Español Latino AC3 5.1 WEB-DL - Ingles AC3 5.1 WEB-DL
  • Subtitulos: Español Latino SRT- FORZADOS SRT
  • Resolución: 1920x1080
  • Formato: MKV
  • Codec: H.264
  • Encoder: cinemaniahdd
  • Mediainfo: Clic para Mostrar Datos Ver
  • Pivoting T01E01 HMAX WEB-DL 1080p Latino [CNMNHDD].mkv
    Format                      : Matroska
    Format version              : Version 4
    File size                   : 1.43 GiB
    Duration                    : 22 min 48 s
    Overall bit rate mode       : Variable
    Overall bit rate            : 9 007 kb/s
    Movie name                  : Pivoting S01E01 - If She Could See Us Now [1080p]
    Encoded date                : UTC 2022-04-15 03:37:01
    Writing application         : mkvmerge v58.0.0 ('Supper's Ready') 32-bit
    Writing library             : libebml v1.4.2 + libmatroska v1.6.4

    Video
    ID                          : 1
    Format                      : AVC
    Format/Info                 : Advanced Video Codec
    Format profile              : High@L4
    Format settings             : CABAC / 4 Ref Frames
    Format settings, CABAC      : Yes
    Format settings, Reference  : 4 frames
    Codec ID                    : V_MPEG4/ISO/AVC
    Duration                    : 22 min 48 s
    Bit rate mode               : Variable
    Bit rate                    : 8 250 kb/s
    Maximum bit rate            : 12.4 Mb/s
    Width                       : 1 920 pixels
    Height                      : 1 080 pixels
    Display aspect ratio        : 16:9
    Frame rate mode             : Constant
    Frame rate                  : 23.976 (24000/1001) FPS
    Color space                 : YUV
    Chroma subsampling          : 4:2:0
    Bit depth                   : 8 bits
    Scan type                   : Progressive
    Bits/(Pixel*Frame)          : 0.166
    Stream size                 : 1.31 GiB (91%)
    Title                       : CinemaniaHDD
    Writing library             : x264 core 157 r2965 861cec4
    Encoding settings           : cabac=1 / ref=4 / deblock=1:0:0 / analyse=0x3:0x113 / me=hex / subme=7 / psy=1 / psy_rd=1.00:0.00 / mixed_ref=1 / me_range=16 / chroma_me=1 / trellis=1 / 8x8dct=1 / cqm=0 / deadzone=21,11 / fast_pskip=1 / chroma_qp_offset=-2 / threads=34 / lookahead_threads=5 / sliced_threads=0 / nr=0 / decimate=1 / interlaced=0 / bluray_compat=0 / constrained_intra=0 / bframes=3 / b_pyramid=2 / b_adapt=1 / b_bias=0 / direct=1 / weightb=1 / open_gop=0 / weightp=2 / keyint=96 / keyint_min=96 / scenecut=40 / intra_refresh=0 / rc_lookahead=40 / rc=2pass / mbtree=1 / bitrate=8250 / ratetol=1.0 / qcomp=0.60 / qpmin=0 / qpmax=69 / qpstep=4 / cplxblur=20.0 / qblur=0.5 / vbv_maxrate=12375 / vbv_bufsize=6187 / nal_hrd=vbr / filler=0 / ip_ratio=1.40 / aq=1:1.00
    Default                     : Yes
    Forced                      : No
    Color range                 : Limited
    Color primaries             : BT.709
    Transfer characteristics    : BT.709
    Matrix coefficients         : BT.709

    Audio #1
    ID                          : 2
    Format                      : AC-3
    Format/Info                 : Audio Coding 3
    Commercial name             : Dolby Digital
    Codec ID                    : A_AC3
    Duration                    : 22 min 48 s
    Bit rate mode               : Constant
    Bit rate                    : 384 kb/s
    Channel(s)                  : 6 channels
    Channel layout              : L R C LFE Ls Rs
    Sampling rate               : 48.0 kHz
    Frame rate                  : 31.250 FPS (1536 SPF)
    Compression mode            : Lossy
    Stream size                 : 62.6 MiB (4%)
    Title                       : Español latino [CinemaniaHDD]
    Language                    : Spanish
    Service kind                : Complete Main
    Default                     : Yes
    Forced                      : No

    Audio #2
    ID                          : 3
    Format                      : AC-3
    Format/Info                 : Audio Coding 3
    Commercial name             : Dolby Digital
    Codec ID                    : A_AC3
    Duration                    : 22 min 48 s
    Bit rate mode               : Constant
    Bit rate                    : 384 kb/s
    Channel(s)                  : 6 channels
    Channel layout              : L R C LFE Ls Rs
    Sampling rate               : 48.0 kHz
    Frame rate                  : 31.250 FPS (1536 SPF)
    Compression mode            : Lossy
    Stream size                 : 62.6 MiB (4%)
    Title                       : Inglés [CinemaniaHDD]
    Language                    : English
    Service kind                : Complete Main
    Default                     : No
    Forced                      : No

    Text #1
    ID                          : 4
    Format                      : UTF-8
    Codec ID                    : S_TEXT/UTF8
    Codec ID/Info               : UTF-8 Plain Text
    Duration                    : 7 min 17 s
    Bit rate                    : 1 b/s
    Count of elements           : 2
    Stream size                 : 66.0 Bytes (0%)
    Title                       : Forzados [CinemaniaHDD]
    Language                    : Spanish
    Default                     : No
    Forced                      : Yes

    Text #2
    ID                          : 5
    Format                      : UTF-8
    Codec ID                    : S_TEXT/UTF8
    Codec ID/Info               : UTF-8 Plain Text
    Duration                    : 22 min 45 s
    Bit rate                    : 90 b/s
    Count of elements           : 475
    Stream size                 : 15.0 KiB (0%)
    Title                       : Español latino [CinemaniaHDD]
    Language                    : Spanish
    Default                     : No
    Forced                      : No

  • Peso: 1.43 GiB Aprox ---- 14 GiB in 10 Chapters.

Sinopsis

En un pequeño pueblo de clase media en Long Island, Nueva York, tres mujeres, muy unidas amigas de la infancia, se enfrentan a la muerte del cuarto miembro de su grupo. Ante la realidad de que la vida es corta, estas mujeres pivotan y alteran sus caminos actuales, a través de una serie de decisiones impulsivas, desacertadas y autoindulgentes. Estos pivotes fortalecerán su vínculo y demostrarán que nunca es demasiado tarde para arruinar su vida en la búsqueda de la felicidad.

Ficha técnica

Video trailer de la película

Enlaces de descarga

Rip de Bluray

Descargar Pivoting (2022) Primera Temporda HMAX WEB-DL 1080p Latino




Aportes de DPeliculasHDmega la pass es:dpeliculashdmega.org Aportes de CinemaniaHD la pass es:cinemaniahdd.com
Guardado en : Comedia , Series

Películas relacionadas

descargar Pivoting (2022) Primera Temporda HMAX WEB-DL 1080p Latino 1080p 1080p gratis, Pivoting (2022) Primera Temporda HMAX WEB-DL 1080p Latino 1080p mega 1 link, Pivoting (2022) Primera Temporda HMAX WEB-DL 1080p Latino 1080p serie completa, descargar Pivoting (2022) Primera Temporda HMAX WEB-DL 1080p Latino 1080p gratis en mega.

Pivoting (2022) Primera Temporda HMAX WEB-DL 1080p Latino pelicula full hd, Pivoting (2022) Primera Temporda HMAX WEB-DL 1080p Latino mega latino, Pivoting (2022) Primera Temporda HMAX WEB-DL 1080p Latino 4k latino, Pivoting (2022) Primera Temporda HMAX WEB-DL 1080p Latino pelicula completa, Pivoting (2022) Primera Temporda HMAX WEB-DL 1080p Latino descargar gratis, descargar Pivoting (2022) Primera Temporda HMAX WEB-DL 1080p Latino pelicula latino, Pivoting (2022) Primera Temporda HMAX WEB-DL 1080p Latino 1 link mega, Pivoting (2022) Primera Temporda HMAX WEB-DL 1080p Latino 1 link google drive, Pivoting (2022) Primera Temporda HMAX WEB-DL 1080p Latino hd 1080p latino.
Comentarios 0