Pitch Perfect 3 (2017) Full 1080p Latino

1.086 vistas
1 estrella2 estrellas3 estrellas4 estrellas5 estrellas (Ninguna valoración todavía)
Cargando…

Información de Pitch Perfect 3 (2017) Full 1080p Latino

Datos de la película

  • Calidad: Full 1080p
  • Audio: Español Latino DTS 5.1 BLURAY - Ingles DTS 5.1 BLURAY
  • Subtitulos: Español Latino PGS - Ingles PGS
  • Resolución: 1920X1080
  • Formato: MKV
  • Codec: H.264
  • Encoder: Dracarys
  • Mediainfo: Clic para Mostrar Datos Ver
  • Format                                   : Matroska
    Format version                           : Version 4 / Version 2
    File size                                : 8.47 GiB
    Duration                                 : 1 h 33 min
    Overall bit rate                         : 13.0 Mb/s
    Movie name                               : CinemaniaHDD.com
    Encoded date                             : UTC 2018-03-15 02:49:37 / UTC 2018-03-14T04:09:40Z
    Writing application                      : mkvmerge v15.0.0 ('Duel with the Devil') 64-bit
    Writing library                          : libebml v1.3.5 + libmatroska v1.4.5 / Lavf57.7.2

    Video
    ID                                       : 1
    Format                                   : AVC
    Format/Info                              : Advanced Video Codec
    Format profile                           : [email protected]
    Format settings                          : CABAC / 4 Ref Frames
    Format settings, CABAC                   : Yes
    Format settings, RefFrames               : 4 frames
    Codec ID                                 : V_MPEG4/ISO/AVC
    Duration                                 : 1 h 33 min
    Bit rate                                 : 9 760 kb/s
    Width                                    : 1 920 pixels
    Height                                   : 1 080 pixels
    Display aspect ratio                     : 16:9
    Frame rate mode                          : Constant
    Frame rate                               : 23.976 (24000/1001) FPS
    Color space                              : YUV
    Chroma subsampling                       : 4:2:0
    Bit depth                                : 8 bits
    Scan type                                : Progressive
    Bits/(Pixel*Frame)                       : 0.196
    Stream size                              : 6.34 GiB (75%)
    Title                                    : Pitch Perfect 3 (2017) Full 1080p Latino
    Writing library                          : x264 core 148 r2708 86b7198
    Encoding settings                        : cabac=1 / ref=4 / deblock=1:0:0 / analyse=0x3:0x133 / me=esa / subme=9 / psy=1 / psy_rd=1.00:0.00 / mixed_ref=1 / me_range=16 / chroma_me=1 / trellis=2 / 8x8dct=1 / cqm=0 / deadzone=21,11 / fast_pskip=1 / chroma_qp_offset=-2 / threads=34 / lookahead_threads=2 / sliced_threads=0 / nr=0 / decimate=1 / interlaced=0 / bluray_compat=0 / constrained_intra=0 / bframes=3 / b_pyramid=2 / b_adapt=2 / b_bias=0 / direct=3 / weightb=1 / open_gop=0 / weightp=2 / keyint=240 / keyint_min=24 / scenecut=40 / intra_refresh=0 / rc_lookahead=60 / rc=crf / mbtree=1 / crf=20.0 / qcomp=0.60 / qpmin=0 / qpmax=69 / qpstep=4 / vbv_maxrate=62500 / vbv_bufsize=78125 / crf_max=0.0 / nal_hrd=none / filler=0 / ip_ratio=1.40 / aq=1:1.00
    Language                                 : English
    Default                                  : Yes
    Forced                                   : No
    Color range                              : Limited
    Color primaries                          : BT.709
    Transfer characteristics                 : BT.709
    Matrix coefficients                      : BT.709
    Statistics Tags Issue                    : mkvmerge v15.0.0 ('Duel with the Devil') 64-bit 2018-03-15 02:49:37 / mkvmerge v15.0.0 ('Duel with the Devil') 64-bit 2018-03-15 02:49:37 / UTC 2018-03-14T04:09:40Z
    FromStats_BitRate                        : 9981523
    FromStats_Duration                       : 01:33:02.786000000
    FromStats_FrameCount                     : 133853
    FromStats_StreamSize                     : 6965588432

    Audio #1
    ID                                       : 2
    Format                                   : DTS
    Format/Info                              : Digital Theater Systems
    Mode                                     : 16
    Format settings, Endianness              : Big
    Codec ID                                 : A_DTS
    Duration                                 : 1 h 33 min
    Bit rate mode                            : Constant
    Bit rate                                 : 1 509 kb/s
    Channel(s)                               : 6 channels
    Channel positions                        : Front: L C R, Side: L R, LFE
    Sampling rate                            : 48.0 kHz
    Frame rate                               : 93.750 FPS (512 SPF)
    Bit depth                                : 24 bits
    Compression mode                         : Lossy
    Stream size                              : 1 004 MiB (12%)
    Language                                 : Spanish
    Default                                  : Yes
    Forced                                   : No
    Statistics Tags Issue                    : mkvmerge v15.0.0 ('Duel with the Devil') 64-bit 2018-03-15 02:49:37 / mkvmerge v15.0.0 ('Duel with the Devil') 64-bit 2018-03-15 02:49:37 / UTC 2018-03-14T04:09:40Z
    FromStats_BitRate                        : 1508999
    FromStats_Duration                       : 01:33:02.795000000
    FromStats_FrameCount                     : 523387
    FromStats_StreamSize                     : 1053054644

    Audio #2
    ID                                       : 3
    Format                                   : DTS
    Format/Info                              : Digital Theater Systems
    Mode                                     : 16
    Format settings, Endianness              : Big
    Codec ID                                 : A_DTS
    Duration                                 : 1 h 33 min
    Bit rate mode                            : Constant
    Bit rate                                 : 1 509 kb/s
    Channel(s)                               : 6 channels
    Channel positions                        : Front: L C R, Side: L R, LFE
    Sampling rate                            : 48.0 kHz
    Frame rate                               : 93.750 FPS (512 SPF)
    Bit depth                                : 24 bits
    Compression mode                         : Lossy
    Stream size                              : 1 004 MiB (12%)
    Language                                 : English
    Default                                  : No
    Forced                                   : No
    Statistics Tags Issue                    : mkvmerge v15.0.0 ('Duel with the Devil') 64-bit 2018-03-15 02:49:37 / mkvmerge v15.0.0 ('Duel with the Devil') 64-bit 2018-03-15 02:49:37 / UTC 2018-03-14T04:09:40Z
    FromStats_BitRate                        : 1508999
    FromStats_Duration                       : 01:33:02.795000000
    FromStats_FrameCount                     : 523387
    FromStats_StreamSize                     : 1053054644

    Text #1
    ID                                       : 4
    Format                                   : PGS
    Muxing mode                              : zlib
    Codec ID                                 : S_HDMV/PGS
    Codec ID/Info                            : Picture based subtitle format used on BDs/HD-DVDs
    Language                                 : English
    Default                                  : No
    Forced                                   : No
    Statistics Tags Issue                    : mkvmerge v15.0.0 ('Duel with the Devil') 64-bit 2018-03-15 02:49:37 / mkvmerge v15.0.0 ('Duel with the Devil') 64-bit 2018-03-15 02:49:37 / UTC 2018-03-14T04:09:40Z
    FromStats_BitRate                        : 66616
    FromStats_Duration                       : 01:27:35.042000000
    FromStats_FrameCount                     : 4222
    FromStats_StreamSize                     : 43758875

    Text #2
    ID                                       : 5
    Format                                   : PGS
    Muxing mode                              : zlib
    Codec ID                                 : S_HDMV/PGS
    Codec ID/Info                            : Picture based subtitle format used on BDs/HD-DVDs
    Language                                 : Spanish
    Default                                  : No
    Forced                                   : No
    Statistics Tags Issue                    : mkvmerge v15.0.0 ('Duel with the Devil') 64-bit 2018-03-15 02:49:37 / mkvmerge v15.0.0 ('Duel with the Devil') 64-bit 2018-03-15 02:49:37 / UTC 2018-03-14T04:09:40Z
    FromStats_BitRate                        : 48005
    FromStats_Duration                       : 01:32:00.682000000
    FromStats_FrameCount                     : 3318
    FromStats_StreamSize                     : 33127987

    Menu
    00:00:00.000                             : :Chapter 1
    00:02:38.533                             : :Chapter 2
    00:05:18.318                             : :Chapter 3
    00:09:31.529                             : :Chapter 4
    00:14:15.563                             : :Chapter 5
    00:16:55.431                             : :Chapter 6
    00:19:09.940                             : :Chapter 7
    00:24:51.657                             : :Chapter 8
    00:29:26.765                             : :Chapter 9
    00:34:33.113                             : :Chapter 10
    00:38:41.402                             : :Chapter 11
    00:45:50.831                             : :Chapter 12
    00:50:31.612                             : :Chapter 13
    00:55:42.631                             : :Chapter 14
    00:59:15.552                             : :Chapter 15
    01:05:01.189                             : :Chapter 16
    01:09:42.053                             : :Chapter 17
    01:15:24.812                             : :Chapter 18
    01:19:25.928                             : :Chapter 19
    01:26:20.175                             : :Chapter 20

  • Peso: 8.47 GiB

Sinopsis

Dando la nota vuelve con más música y más coreografías espectaculares. Tercera parte de la exitosa franquicia musical sobre las aventuras de las componentes femeninas del grupo de música a capella llamado The Barden Bellas.

 

Audio Latino 7.1

Audio Ingles 7.1

Ficha técnica

Video trailer de la película

Enlaces de descarga

Rip de Bluray

Descargar Pitch Perfect 3 (2017) Full 1080p Latino




Aportes de DPeliculasHDmega la pass es:dpeliculashdmega.org Aportes de CinemaniaHD la pass es:cinemaniahdd.com

Películas relacionadas

  • El secreto de mi éxito (1987) REMUX 1080p Latino

    1987
    El secreto de mi éxito (1987) REMUX 1080p Latino

    0.0 1h 40m 1987

    Brantley Foster, un educado chico de Arkansas que acaba de licenciarse, ha soñado siempre con triunfar...

    Director: Herbert Ross

    Género: Comedia

    Actores: Richard Jordan

  • Samantha! (2019) Temporada 1 y 2 NF 1080p Latino

    2018
    Samantha! (2019) Temporada 1 y 2 NF 1080p Latino

    0.0 0h 28m 2018

    Samantha, una estrella infantil en la década de los 80, se aferra a los límites de la celebridad con...

    Director: Felipe Braga

    Género: Comedia

    Actores: Sidney Alexandre

  • Someone Great (2019) NF 1080p Latino

    2019
    Someone Great (2019) NF 1080p Latino

    0.0 1h 32m 2019

    Para Makani Young, mudarse a Nebraska desde Hawaii, resultó todo un choque cultural. Todavía adaptándose...

    Director: Jennifer Kaytin Robinson

    Género: Comedia

    Actores: Thomas Kopache

  • Super Campones (2018) Temporada 1 NF 1080p Latino

    2018
    Super Campones (2018) Temporada 1 NF 1080p Latino

    5.0 0h 22m 2018

    La historia apasionada de un estudiante de escuela primaria cuyos pensamientos y sueños giran casi enteramente...

    Director: Toshiyuki Kato

    Género: Animación

    Actores: Yuuko Sanpei

Comentarios 2
  • jk2018 - 18 marzo, 2018

    no entra a las pagina de desgarga que pasa tienen problema

    • dpelis - 18 marzo, 2018

      que navagador esta usando?