Riddick: Criaturas de la noche (2000) REMASTERED REMUX 1080p latino

254 vistas
1 estrella2 estrellas3 estrellas4 estrellas5 estrellas (1 votos, promedio: 5,00 de 5)
Cargando...

Información de Riddick: Criaturas de la noche (2000) REMASTERED REMUX 1080p latino

Datos de la película

  • Calidad: Full 1080p
  • Audio: Español Latino DTS 5.1 BLURAY - Ingles DTS 5.1 BLURAY
  • Subtitulos: Español Latino PGS - Ingles PGS
  • Resolución: 1920x1080p
  • Formato: MKV
  • Codec: H.264
  • Encoder: CinefiloCool
  • Mediainfo: Clic para Mostrar Datos Ver
  • Criaturas de la noche (2000) Remaster TC REMUX 1080p Latino-CMHDD.mkv
    Format                      : Matroska
    Format version              : Version 4
    File size                   : 22.5 GiB
    Duration                    : 1 h 48 min
    Overall bit rate mode       : Variable
    Overall bit rate            : 29.8 Mb/s
    Movie name                  : Pitch Black (2000) CinemaniaHDD.Net
    Encoded date                : UTC 2020-08-30 04:35:35
    Writing application         : mkvmerge v46.0.0 ('No Deeper Escape') 64-bit
    Writing library             : libebml v1.3.10 + libmatroska v1.5.2
    Attachments                 : CINEMANIAHD.png

    Video
    ID                          : 1
    ID in the original source m : 4113 (0x1011)
    Format                      : AVC
    Format/Info                 : Advanced Video Codec
    Format profile              : High@L4.1
    Format settings             : CABAC / 3 Ref Frames
    Format settings, CABAC      : Yes
    Format settings, Reference  : 3 frames
    Codec ID                    : V_MPEG4/ISO/AVC
    Duration                    : 1 h 48 min
    Bit rate mode               : Variable
    Bit rate                    : 25.0 Mb/s
    Maximum bit rate            : 35.0 Mb/s
    Width                       : 1 920 pixels
    Height                      : 1 080 pixels
    Display aspect ratio        : 16:9
    Frame rate mode             : Constant
    Frame rate                  : 24.000 FPS
    Color space                 : YUV
    Chroma subsampling          : 4:2:0
    Bit depth                   : 8 bits
    Scan type                   : Progressive
    Bits/(Pixel*Frame)          : 0.502
    Stream size                 : 18.8 GiB (84%)
    Title                       : REMUX 1080p [CinemaniaHDD]
    Writing library             : x264 core 157 r2969 d4099dd
    Encoding settings           : cabac=1 / ref=4 / deblock=0:-1:-1 / analyse=0x3:0x133 / me=umh / subme=10 / psy=1 / psy_rd=1.00:0.15 / mixed_ref=1 / me_range=24 / chroma_me=1 / trellis=2 / 8x8dct=1 / cqm=0 / deadzone=21,11 / fast_pskip=1 / chroma_qp_offset=-3 / threads=34 / lookahead_threads=2 / sliced_threads=0 / slices=4 / nr=0 / decimate=1 / interlaced=0 / bluray_compat=1 / constrained_intra=0 / bframes=3 / b_pyramid=1 / b_adapt=2 / b_bias=0 / direct=3 / weightb=1 / open_gop=1 / weightp=1 / keyint=24 / keyint_min=1 / scenecut=40 / intra_refresh=0 / rc_lookahead=24 / rc=2pass / mbtree=1 / bitrate=25000 / ratetol=1.0 / qcomp=0.60 / qpmin=0 / qpmax=69 / qpstep=4 / cplxblur=20.0 / qblur=0.5 / vbv_maxrate=35000 / vbv_bufsize=30000 / nal_hrd=vbr / filler=0 / ip_ratio=1.40 / aq=1:0.40 / zones=2227,2227,b=3.0
    Language                    : English
    Default                     : Yes
    Forced                      : No
    Color range                 : Limited
    Color primaries             : BT.709
    Transfer characteristics    : BT.709
    Matrix coefficients         : BT.709
    Original source medium      : Blu-ray

    Audio #1
    ID                          : 2
    Format                      : DTS
    Format/Info                 : Digital Theater Systems
    Codec ID                    : A_DTS
    Duration                    : 1 h 48 min
    Bit rate mode               : Constant
    Bit rate                    : 768 kb/s
    Channel(s)                  : 6 channels
    Channel layout              : C L R Ls Rs LFE
    Sampling rate               : 48.0 kHz
    Frame rate                  : 93.750 FPS (512 SPF)
    Bit depth                   : 24 bits
    Compression mode            : Lossy
    Stream size                 : 594 MiB (3%)
    Title                       : Español Latino [CinemaniaHDD]
    Language                    : Spanish
    Default                     : Yes
    Forced                      : No

    Audio #2
    ID                          : 3
    ID in the original source m : 4352 (0x1100)
    Format                      : DTS XLL
    Format/Info                 : Digital Theater Systems
    Commercial name             : DTS-HD Master Audio
    Codec ID                    : A_DTS
    Duration                    : 1 h 48 min
    Bit rate mode               : Variable
    Bit rate                    : 4 114 kb/s
    Channel(s)                  : 6 channels
    Channel layout              : C L R Ls Rs LFE
    Sampling rate               : 48.0 kHz
    Frame rate                  : 93.750 FPS (512 SPF)
    Bit depth                   : 24 bits
    Compression mode            : Lossless
    Stream size                 : 3.11 GiB (14%)
    Title                       : Ingles [CinemaniaHDD]
    Language                    : English
    Default                     : No
    Forced                      : No
    Original source medium      : Blu-ray

    Text #1
    ID                          : 4
    Format                      : PGS
    Muxing mode                 : zlib
    Codec ID                    : S_HDMV/PGS
    Codec ID/Info               : Picture based subtitle format used on BDs/HD-DVDs
    Duration                    : 1 h 40 min
    Bit rate                    : 19.0 kb/s
    Count of elements           : 1628
    Stream size                 : 13.7 MiB (0%)
    Title                       : Español-PGS [CinemaniaHDD]
    Language                    : Spanish
    Default                     : No
    Forced                      : No

    Text #2
    ID                          : 5
    ID in the original source m : 4608 (0x1200)
    Format                      : PGS
    Muxing mode                 : zlib
    Codec ID                    : S_HDMV/PGS
    Codec ID/Info               : Picture based subtitle format used on BDs/HD-DVDs
    Duration                    : 1 h 40 min
    Bit rate                    : 27.1 kb/s
    Count of elements           : 2140
    Stream size                 : 19.5 MiB (0%)
    Title                       : Ingles-PGS [CinemaniaHDD]
    Language                    : English
    Default                     : No
    Forced                      : No
    Original source medium      : Blu-ray

    Text #3
    ID                          : 6
    Format                      : UTF-8
    Codec ID                    : S_TEXT/UTF8
    Codec ID/Info               : UTF-8 Plain Text
    Duration                    : 1 h 46 min
    Bit rate                    : 0 b/s
    Count of elements           : 10
    Stream size                 : 250 Bytes (0%)
    Title                       : Forzados-SRT [CinemaniaHDD]
    Language                    : Spanish
    Default                     : Yes
    Forced                      : No

    Text #4
    ID                          : 7
    Format                      : UTF-8
    Codec ID                    : S_TEXT/UTF8
    Codec ID/Info               : UTF-8 Plain Text
    Duration                    : 1 h 46 min
    Bit rate                    : 29 b/s
    Count of elements           : 758
    Stream size                 : 22.9 KiB (0%)
    Title                       : Español-SRT [CinemaniaHDD]
    Language                    : Spanish
    Default                     : No
    Forced                      : No

    Menu
    00:00:00.000                : en:Chapter 01
    00:11:13.083                : en:Chapter 02
    00:18:01.250                : en:Chapter 03
    00:26:38.625                : en:Chapter 04
    00:35:36.375                : en:Chapter 05
    00:44:28.583                : en:Chapter 06
    00:52:34.083                : en:Chapter 07
    00:58:59.375                : en:Chapter 08
    01:08:38.583                : en:Chapter 09
    01:15:36.583                : en:Chapter 10
    01:29:57.000                : en:Chapter 11
    01:35:38.166                : en:Chapter 12

  • Peso: 22.5 GiB

Sinopsis

Descargar Riddick: Criaturas de la noche (2000) REMASTERED REMUX 1080p latino. Una nave especial lleva a bordo 39 pasajeros que se dirigen a New Mecca, una colonia en el espacio exterior. Pero durante el vuelo tiene una avería, debido a una tormenta de meteoritos, que hace que la nave tenga que aterrizar en un planeta perdido. Para más inri hay un prisionero extremadamente peligroso: el pasajero número 40 es Richard Riddick, un peligroso criminal que está siendo transportado a una prisión de máxima seguridad. Por culpa del aterrizaje de emergencia mueren 29 pasajeros, y Riddick aprovecha para escapar. Aislados de toda forma de vida en un planeta donde nunca se pone el sol y no hay agua, creen estar ante un verdadero problema. Pero se equivocan, ya que los verdaderos problemas todavía están por llegar, ya que cada 22 años tiene lugar un eclipse y con la oscuridad llegan unos extraños y letales seres que querrán acabar con ellos.

Ficha técnica

Video trailer de la película

Enlaces de descarga

Rip de Bluray

Descargar Riddick: Criaturas de la noche (2000) REMASTERED REMUX 1080p latino




Aportes de DPeliculasHDmega la pass es:dpeliculashdmega.org Aportes de CinemaniaHD la pass es:cinemaniahdd.com
Guardado en : Acción , Ciencia ficción , Remux , Suspenso

Películas relacionadas

Riddick: Criaturas de la noche (2000) REMASTERED REMUX 1080p latino pelicula full hd, Riddick: Criaturas de la noche (2000) REMASTERED REMUX 1080p latino mega latino, Riddick: Criaturas de la noche (2000) REMASTERED REMUX 1080p latino 4k latino, Riddick: Criaturas de la noche (2000) REMASTERED REMUX 1080p latino pelicula completa, Riddick: Criaturas de la noche (2000) REMASTERED REMUX 1080p latino descargar gratis, descargar Riddick: Criaturas de la noche (2000) REMASTERED REMUX 1080p latino pelicula latino, Riddick: Criaturas de la noche (2000) REMASTERED REMUX 1080p latino 1 link mega, Riddick: Criaturas de la noche (2000) REMASTERED REMUX 1080p latino 1 link google drive, Riddick: Criaturas de la noche (2000) REMASTERED REMUX 1080p latino hd 1080p latino.
Comentarios 1
  • ocpgaiden - 01 septiembre, 2020

    Gracias y saludos